Вы используете незарегистрированную версию компонента "Вкладки"!

Поиск

( free jazz) Tony Malaby - Tamarindo Live (2010), FLAC (tracks+.cue), lossless

( free jazz) Tony Malaby - Tamarindo Live (2010), FLAC (tracks+.cue), lossless
Треклист:


Tony Malaby - Tamarindo Live (2010)

Жанр: free jazz
Год выпуска: 2010
Издатель (лейбл):Clean Feed / CF200
Формат: FLAC (tracks+.cue)
Битрейт аудио: lossless
Продолжительность 58`31
Источник: what.cd
Tony Malaby (tenor sax)
Wadada Leo Smith (trumpet)
Nasheet Waits (drums)
William Parker (bass)

tracks

01. Buoyant Boy
02. Death Rattle
03. Hibiscus
04. Jack the Hat with Coda


 
.log
Exact Audio Copy V0.99 prebeta 5 from 4. May 2009
EAC extraction logfile from 30. November 2010, 1:12
Tony Malaby / Tamarindo Live
Used drive : Optiarc DVD RW AD-5170A Adapter: 0 ID: 0
Read mode : Secure
Utilize accurate stream : Yes
Defeat audio cache : Yes
Make use of C2 pointers : No
Read offset correction : 48
Overread into Lead-In and Lead-Out : No
Fill up missing offset samples with silence : Yes
Delete leading and trailing silent blocks : No
Null samples used in CRC calculations : Yes
Used interface : Native Win32 interface for Win NT & 2000
Gap handling : Appended to previous track
Used output format : User Defined Encoder
Selected bitrate : 320 kBit/s
Quality : High
Add ID3 tag : No
Command line compressor : C:\Program Files (x86)\Exact Audio Copy\Flac\flac.exe
Additional command line options : -V -8 -T "artist=%a" -T "title=%t" -T "album=%g" -T "date=%y" -T "tracknumber=%n" -T "genre=%m" %s
TOC of the extracted CD
Track | Start | Length | Start sector | End sector
---------------------------------------------------------
1 | 0:00.00 | 12:16.22 | 0 | 55221
2 | 12:16.22 | 17:13.71 | 55222 | 132767
3 | 29:30.18 | 14:36.50 | 132768 | 198517
4 | 44:06.68 | 14:23.70 | 198518 | 263312
Track 1
Filename D:\musicrips\Tony Malaby - Tamarindo Live (2010)\01 - Buoyant Boy.wav
Pre-gap length 0:00:02.00
Peak level 98.8 %
Track quality 99.9 %
Test CRC D3CC9FDD
Copy CRC D3CC9FDD
Track not present in AccurateRip database
Copy OK
Track 2
Filename D:\musicrips\Tony Malaby - Tamarindo Live (2010)\02 - Death Rattle.wav
Pre-gap length 0:00:03.00
Peak level 98.8 %
Track quality 100.0 %
Test CRC 3626E104
Copy CRC 3626E104
Track not present in AccurateRip database
Copy OK
Track 3
Filename D:\musicrips\Tony Malaby - Tamarindo Live (2010)\03 - Hibiscus.wav
Pre-gap length 0:00:01.00
Peak level 53.9 %
Track quality 99.9 %
Test CRC 0637EF85
Copy CRC 0637EF85
Track not present in AccurateRip database
Copy OK
Track 4
Filename D:\musicrips\Tony Malaby - Tamarindo Live (2010)\04 - Jack the Hat with Coda.wav
Pre-gap length 0:00:02.00
Peak level 98.8 %
Track quality 100.0 %
Test CRC C6E55C02
Copy CRC C6E55C02
Track not present in AccurateRip database
Copy OK
None of the tracks are present in the AccurateRip database
No errors occurred
End of status report
 
.cue
REM GENRE Jazz
REM DATE 2010
REM DISCID 390DB604
REM COMMENT "ExactAudioCopy v0.99pb5"
FILE "01 - Buoyant Boy.wav" WAVE
TRACK 01 AUDIO
INDEX 01 00:00:00
TRACK 02 AUDIO
INDEX 00 12:13:22
FILE "02 - Death Rattle.wav" WAVE
INDEX 01 00:00:00
TRACK 03 AUDIO
INDEX 00 17:12:71
FILE "03 - Hibiscus.wav" WAVE
INDEX 01 00:00:00
TRACK 04 AUDIO
INDEX 00 14:34:50
FILE "04 - Jack the Hat with Coda.wav" WAVE
INDEX 01 00:00:00

другие релизы
Any questions -> support@pro-jazz.com. По всем вопросам пишите -> support@pro-jazz.com
06:14
169
Нет комментариев. Ваш будет первым!