Вы используете незарегистрированную версию компонента "Вкладки"!

Поиск

(Free Jazz) New York Art Quartet - 35th Reunion - 2000, FLAC (tracks+.cue), lossless

(Free Jazz) New York Art Quartet - 35th Reunion - 2000, FLAC (tracks+.cue), lossless
Треклист:
New York Art Quartet - 35th Reunion
Жанр: Free Jazz
Страна-производитель диска: Japan
Год издания: 2000
Издатель (лейбл): DIW Records
Номер по каталогу: DIW-936
Аудиокодек: FLAC (*.flac)
Тип рипа: tracks+.cue
Битрейт аудио: lossless
Продолжительность: 1:06:59
Источник (релизер): собственный рип с оригинального диска.
Наличие сканов в содержимом раздачи: да
Треклист:
01. A Meeting Of Remarkable Journeys
02. Reentering
03. Llanto Del Indio
04. VG's Birthday Jamboree
05. Visiting Ogun
06. Perceiving Passerby's
07. Seek Light At Once
08. Music's Underwear
 
Лог создания рипа
Exact Audio Copy V1.0 beta 3 from 29. August 2011
EAC extraction logfile from 27. December 2012, 18:53
New York Art Quartet / 35th Reunion
Used drive : TSSTcorpCDDVDW SH-S222A Adapter: 1 ID: 0
Read mode : Secure
Utilize accurate stream : Yes
Defeat audio cache : Yes
Make use of C2 pointers : No
Read offset correction : 6
Overread into Lead-In and Lead-Out : No
Fill up missing offset samples with silence : Yes
Delete leading and trailing silent blocks : No
Null samples used in CRC calculations : Yes
Used interface : Native Win32 interface for Win NT & 2000
Gap handling : Appended to previous track
Used output format : User Defined Encoder
Selected bitrate : 896 kBit/s
Quality : High
Add ID3 tag : No
Command line compressor : C:\Tool\CD\EAC10\FLAC\FLAC.EXE
Additional command line options : -8 -V -T "ARTIST=%artist%" -T "TITLE=%title%" -T "ALBUM=%albumtitle%" -T "DATE=%year%" -T "TRACKNUMBER=%tracknr%" -T "GENRE=%genre%" -T "PERFORMER=%albuminterpret%" -T "COMPOSER=%composer%" %haslyrics%--tag-from-file=LYRICS="%lyricsfile%"%haslyrics% -T "ALBUMARTIST=%albumartist%" -T "ALBUM ARTIST=%albumartist%" -T "DISCNUMBER=%cdnumber%" -T "TOTALDISCS=%totalcds%" -T "TOTALTRACKS=%numtracks%" -T "COMMENT=EAC V1.0 beta 3, Secure Mode, Test & Copy, AccurateRip, FLAC -8" %source% -o %dest%
TOC of the extracted CD
Track | Start | Length | Start sector | End sector
---------------------------------------------------------
1 | 0:00.00 | 6:48.12 | 0 | 30611
2 | 6:48.12 | 13:59.73 | 30612 | 93609
3 | 20:48.10 | 7:59.07 | 93610 | 129541
4 | 28:47.17 | 8:42.38 | 129542 | 168729
5 | 37:29.55 | 4:15.52 | 168730 | 187906
6 | 41:45.32 | 4:10.18 | 187907 | 206674
7 | 45:55.50 | 10:34.12 | 206675 | 254236
8 | 56:29.62 | 10:32.08 | 254237 | 301644
Track 1
Filename C:\! UPLOAD\New York Art Quartet - 35th Reunion (2000) [FLAC] {DIW-936}\01 - A Meeting of Remarkable Journeys.wav
Pre-gap length 0:00:02.00
Peak level 100.0 %
Extraction speed 3.5 X
Track quality 100.0 %
Test CRC 1A142076
Copy CRC 1A142076
Accurately ripped (confidence 2) [0CA5ABA3] (AR v1)
Copy OK
Track 2
Filename C:\! UPLOAD\New York Art Quartet - 35th Reunion (2000) [FLAC] {DIW-936}\02 - Reentering.wav
Pre-gap length 0:00:02.05
Peak level 100.0 %
Extraction speed 3.5 X
Track quality 99.9 %
Test CRC 75AB48D0
Copy CRC 75AB48D0
Accurately ripped (confidence 2) [F39FB7A0] (AR v1)
Copy OK
Track 3
Filename C:\! UPLOAD\New York Art Quartet - 35th Reunion (2000) [FLAC] {DIW-936}\03 - Llanto del Indio.wav
Peak level 100.0 %
Extraction speed 3.6 X
Track quality 100.0 %
Test CRC A0F5A012
Copy CRC A0F5A012
Accurately ripped (confidence 2) [13A61F0F] (AR v1)
Copy OK
Track 4
Filename C:\! UPLOAD\New York Art Quartet - 35th Reunion (2000) [FLAC] {DIW-936}\04 - VG's Birthday Jamboree.wav
Peak level 100.0 %
Extraction speed 3.6 X
Track quality 100.0 %
Test CRC F1E66CAA
Copy CRC F1E66CAA
Accurately ripped (confidence 2) [C69214F9] (AR v1)
Copy OK
Track 5
Filename C:\! UPLOAD\New York Art Quartet - 35th Reunion (2000) [FLAC] {DIW-936}\05 - Visiting Ogun.wav
Peak level 26.3 %
Extraction speed 3.4 X
Track quality 100.0 %
Test CRC 344E6E68
Copy CRC 344E6E68
Accurately ripped (confidence 2) [9F3B736D] (AR v1)
Copy OK
Track 6
Filename C:\! UPLOAD\New York Art Quartet - 35th Reunion (2000) [FLAC] {DIW-936}\06 - Perceiving Passerby's.wav
Pre-gap length 0:00:00.01
Peak level 99.9 %
Extraction speed 3.3 X
Track quality 100.0 %
Test CRC DA35EDA7
Copy CRC DA35EDA7
Accurately ripped (confidence 2) [6BA8C708] (AR v1)
Copy OK
Track 7
Filename C:\! UPLOAD\New York Art Quartet - 35th Reunion (2000) [FLAC] {DIW-936}\07 - Seek Light at Once.wav
Peak level 100.0 %
Extraction speed 3.6 X
Track quality 100.0 %
Test CRC 96E610F4
Copy CRC 96E610F4
Accurately ripped (confidence 2) [854CCD6B] (AR v1)
Copy OK
Track 8
Filename C:\! UPLOAD\New York Art Quartet - 35th Reunion (2000) [FLAC] {DIW-936}\08 - Music's Underwear.wav
Peak level 69.5 %
Extraction speed 3.3 X
Track quality 99.9 %
Test CRC 9D82B4C9
Copy CRC 9D82B4C9
Accurately ripped (confidence 2) [07AF7B3A] (AR v1)
Copy OK
All tracks accurately ripped
No errors occurred
End of status report
---- CUETools DB Plugin V2.1.3
[CTDB TOCID: DKHQk7KrvWfGNgbxrT.QltP3vFw-] disk not present in database, Submit result: DKHQk7KrvWfGNgbxrT.QltP3vFw- has been uploaded
==== Log checksum 2BA1E9B27B7542D5225FC4F023B04F38746C7AAAE4551AA20A864326D8CA8F9F ====
 
Содержание индексной карты (.CUE)
REM GENRE Jazz
REM DATE 2000
REM DISCID 5F0FB508
REM COMMENT "ExactAudioCopy v1.0b3"
CATALOG 0000000000000
PERFORMER "New York Art Quartet"
TITLE "35th Reunion"
FILE "01 - A Meeting of Remarkable Journeys.wav" WAVE
TRACK 01 AUDIO
TITLE "A Meeting of Remarkable Journeys"
PERFORMER "New York Art Quartet"
INDEX 01 00:00:00
TRACK 02 AUDIO
TITLE "Reentering"
PERFORMER "New York Art Quartet"
INDEX 00 06:46:07
FILE "02 - Reentering.wav" WAVE
INDEX 01 00:00:00
FILE "03 - Llanto del Indio.wav" WAVE
TRACK 03 AUDIO
TITLE "Llanto del Indio"
PERFORMER "New York Art Quartet"
INDEX 01 00:00:00
FILE "04 - VG's Birthday Jamboree.wav" WAVE
TRACK 04 AUDIO
TITLE "VG's Birthday Jamboree"
PERFORMER "New York Art Quartet"
INDEX 01 00:00:00
FILE "05 - Visiting Ogun.wav" WAVE
TRACK 05 AUDIO
TITLE "Visiting Ogun"
PERFORMER "New York Art Quartet"
INDEX 01 00:00:00
TRACK 06 AUDIO
TITLE "Perceiving Passerby's"
PERFORMER "New York Art Quartet"
INDEX 00 04:15:51
FILE "06 - Perceiving Passerby's.wav" WAVE
INDEX 01 00:00:00
FILE "07 - Seek Light at Once.wav" WAVE
TRACK 07 AUDIO
TITLE "Seek Light at Once"
PERFORMER "New York Art Quartet"
INDEX 01 00:00:00
FILE "08 - Music's Underwear.wav" WAVE
TRACK 08 AUDIO
TITLE "Music's Underwear"
PERFORMER "New York Art Quartet"
INDEX 01 00:00:00
Доп. информация:
Recorded on June 14, 1999 at Avatar, NYC
 
Об исполнителе (Reggie Workman said in the liner notes)
"What an indescribable pleasure to be in the company of and make music with people I consider to be true innovators and warriors in the art world. These are performers who have "stuck by their guns" (the sign of the true warrior). You will notice herein that evolution has been in the forefront for each of the artist you are about to travel with. ENJOY."
 
Об альбоме (John Tchicai remarked)
"One day back in the '60s, in my apartment on 46th Street, between 3rd & Lexington, when I was doing an LSD trip, not THE bad one where I had to phone my girlfriend to come and save me, but the good one where I was listening to a recording of the NYAQ. With my eyes closed, I saw the most wonderful patterns and colors that I hadn't seen anywhere else before. It was happening in my mind together with the music, and right there I decided that this was where I wanted to go, to reach this level of extacy and exultance, but in a natural way and not by doing any drugs whatsoever. I have been practising yoga and Pranayama ever since and now with the reunion of the NYAQ, I, and listeners of this recording can try out the color-faculty of our minds, to see which patterns emerge. If nothing happens, don't worry, one thing is certain, we'll all be deeply influenced in a positive way, and inspired from these honest and healthy musical expressions."
 
Состав
John Tchicai - saxophone
Roswell Rudd - trombone
Reggie Workman - bass
Milford Graves - drums
Amiri Baraka - vocals
Any questions -> support@pro-jazz.com. По всем вопросам пишите -> support@pro-jazz.com
07:24
119
Нет комментариев. Ваш будет первым!