Вы используете незарегистрированную версию компонента "Вкладки"!

Поиск

(Avant-garde Jazz) Organico Musica Creativa Improvvisata - Concerto alla Statale Nov 29, 1975 - 1998, FLAC (tracks+.cue), lossless

(Avant-garde Jazz) Organico Musica Creativa Improvvisata - Concerto alla Statale Nov 29, 1975 - 1998, FLAC (tracks+.cue), lossless
Треклист:
Organico Musica Creativa Improvvisata - Concerto alla Statale Nov 29, 1975
Жанр: Avant-garde Jazz
Страна-производитель диска: Italy
Год издания: 1998
Издатель (лейбл): Splasc(H) Records
Номер по каталогу: CDH 511.2
Аудиокодек: FLAC (*.flac)
Тип рипа: tracks+.cue
Битрейт аудио: lossless
Продолжительность: 35:58
Источник (релизер): собственный рип с оригинального диска.
Наличие сканов в содержимом раздачи: да
Треклист:
Statale Suite
01. Part one
02. Part two
03. Part three
04. Part four
 
Лог создания рипа
Exact Audio Copy V1.0 beta 3 from 29. August 2011
EAC extraction logfile from 15. September 2012, 12:30
O.M.C.I. / Concerto alla Statale
Used drive : TSSTcorpCDDVDW SH-S222A Adapter: 1 ID: 0
Read mode : Secure
Utilize accurate stream : Yes
Defeat audio cache : Yes
Make use of C2 pointers : No
Read offset correction : 6
Overread into Lead-In and Lead-Out : No
Fill up missing offset samples with silence : Yes
Delete leading and trailing silent blocks : No
Null samples used in CRC calculations : Yes
Used interface : Native Win32 interface for Win NT & 2000
Gap handling : Appended to previous track
Used output format : User Defined Encoder
Selected bitrate : 1024 kBit/s
Quality : High
Add ID3 tag : No
Command line compressor : C:\Tool\CD\EAC10\FLAC\FLAC.EXE
Additional command line options : -8 -V -T "ARTIST=%artist%" -T "TITLE=%title%" -T "ALBUM=%albumtitle%" -T "DATE=%year%" -T "TRACKNUMBER=%tracknr%" -T "GENRE=%genre%" -T "PERFORMER=%albuminterpret%" -T "COMPOSER=%composer%" %haslyrics%--tag-from-file=LYRICS="%lyricsfile%"%haslyrics% -T "ALBUMARTIST=%albumartist%" -T "ALBUM ARTIST=%albumartist%" -T "DISCNUMBER=%cdnumber%" -T "TOTALDISCS=%totalcds%" -T "TOTALTRACKS=%numtracks%" -T "COMMENT=EAC V1.0 beta 3, Secure Mode, Test & Copy, AccurateRip, FLAC -8" %source% -o %dest%
TOC of the extracted CD
Track | Start | Length | Start sector | End sector
---------------------------------------------------------
1 | 0:00.00 | 8:53.12 | 0 | 39986
2 | 8:53.12 | 9:34.65 | 39987 | 83101
3 | 18:28.02 | 5:04.73 | 83102 | 105974
4 | 23:33.00 | 12:27.02 | 105975 | 162001
Track 1
Filename C:\! UPLOAD\O.M.C.I. - Concerto alla Statale (1998) [FLAC] {SplascH}\01 - Statale Suite Part One.wav
Pre-gap length 0:00:02.00
Peak level 87.8 %
Extraction speed 1.8 X
Track quality 99.9 %
Test CRC A52EBDFF
Copy CRC A52EBDFF
Track not present in AccurateRip database
Copy OK
Track 2
Filename C:\! UPLOAD\O.M.C.I. - Concerto alla Statale (1998) [FLAC] {SplascH}\02 - Statale Suite Part Two.wav
Peak level 100.0 %
Extraction speed 2.3 X
Track quality 100.0 %
Test CRC 315B0333
Copy CRC 315B0333
Track not present in AccurateRip database
Copy OK
Track 3
Filename C:\! UPLOAD\O.M.C.I. - Concerto alla Statale (1998) [FLAC] {SplascH}\03 - Statale Suite Part Three.wav
Peak level 100.0 %
Extraction speed 2.4 X
Track quality 100.0 %
Test CRC B6F72717
Copy CRC B6F72717
Track not present in AccurateRip database
Copy OK
Track 4
Filename C:\! UPLOAD\O.M.C.I. - Concerto alla Statale (1998) [FLAC] {SplascH}\04 - Statale Suite Part Four.wav
Peak level 99.1 %
Extraction speed 2.7 X
Track quality 99.9 %
Test CRC 7BBBE299
Copy CRC 7BBBE299
Track not present in AccurateRip database
Copy OK
None of the tracks are present in the AccurateRip database
No errors occurred
End of status report
---- CUETools DB Plugin V2.1.3
[CTDB TOCID: rdnQYVtq.g3sJTwoCWnid_GcoW0-] disk not present in database, Submit result: rdnQYVtq.g3sJTwoCWnid_GcoW0- has been uploaded
==== Log checksum AE31E9E8EC713960F9805404DFD7A4AD8FE706BEA5F98DBF0C1F7CCFBC62FA0E ====
 
Содержание индексной карты (.CUE)
REM GENRE Jazz
REM DATE 1998
REM DISCID 1D087004
REM COMMENT "ExactAudioCopy v1.0b3"
CATALOG 0000000000000
PERFORMER "O.M.C.I."
TITLE "Concerto alla Statale"
FILE "01 - Statale Suite Part One.wav" WAVE
TRACK 01 AUDIO
TITLE "Statale Suite Part One"
PERFORMER "O.M.C.I."
INDEX 01 00:00:00
FILE "02 - Statale Suite Part Two.wav" WAVE
TRACK 02 AUDIO
TITLE "Statale Suite Part Two"
PERFORMER "O.M.C.I."
INDEX 01 00:00:00
FILE "03 - Statale Suite Part Three.wav" WAVE
TRACK 03 AUDIO
TITLE "Statale Suite Part Three"
PERFORMER "O.M.C.I."
INDEX 01 00:00:00
FILE "04 - Statale Suite Part Four.wav" WAVE
TRACK 04 AUDIO
TITLE "Statale Suite Part Four"
PERFORMER "O.M.C.I."
INDEX 01 00:00:00
Доп. информация:
Recorded live on November 29th, 1975, at the State University, Milan.
 
Об альбоме (from aaj)
Esattamente trentacinque anni fa (28-30 novembre 1975), nel clima torrido degli anni Settanta, l'aula magna della Statale di Milano ospitava la rassegna "Nuove tendenze del jazz italiano," quasi una chiamata a raccolta di tutte le forze creative del momento. L'importanza di quell' esperienza - unica - promossa dal Movimento studentesco va oggi valutata sia sul piano storico che musicale: essa infatti consentì a tanti giovani di identificarsi con una intera generazione di musicisti che ha tentato velleitariamente di cambiare il mondo in musica. Abbiamo provato a raccontare cosa accadde durante quella tre-giorni attraverso il racconto di chi c'era.
 
Состав
Renato Geremia - soprano and tenor saxophones, flute, piano, violin
Mauro Periotto - bass
Tony Rusconi - drums
Any questions -> support@pro-jazz.com. По всем вопросам пишите -> support@pro-jazz.com
07:23
121
Нет комментариев. Ваш будет первым!