Вы используете незарегистрированную версию компонента "Вкладки"!

Поиск

(Free Improvisation) Tony Oxley Celebration Orchestra featuring Bill Dixon - The Enchanted Messenger - 1996, FLAC (tracks+.cue), lossless

(Free Improvisation) Tony Oxley Celebration Orchestra featuring Bill Dixon - The Enchanted Messenger - 1996, FLAC (tracks+.cue), lossless
Треклист:
Tony Oxley Celebration Orchestra featuring Bill Dixon - The Enchanted Messenger
Жанр: Free Improvisation
Страна-производитель диска: Italy
Год издания: 1996
Издатель (лейбл): Soul Note Records
Номер по каталогу: 121284-2
Аудиокодек: FLAC (*.flac)
Тип рипа: tracks+.cue
Битрейт аудио: lossless
Продолжительность: 1:08:22
Источник (релизер): собственный рип с оригинального диска.
Наличие сканов в содержимом раздачи: да
Треклист:
01. The Enchanted Messenger, Sections 1 to 19 68:32
 
Лог создания рипа
Exact Audio Copy V1.0 beta 3 from 29. August 2011
EAC extraction logfile from 10. October 2012, 21:00
Tony Oxley Celebration Orchestra / Enchanted Messenger
Used drive : TSSTcorpCDDVDW SH-S222A Adapter: 1 ID: 0
Read mode : Secure
Utilize accurate stream : Yes
Defeat audio cache : Yes
Make use of C2 pointers : No
Read offset correction : 6
Overread into Lead-In and Lead-Out : No
Fill up missing offset samples with silence : Yes
Delete leading and trailing silent blocks : No
Null samples used in CRC calculations : Yes
Used interface : Native Win32 interface for Win NT & 2000
Gap handling : Appended to previous track
Used output format : User Defined Encoder
Selected bitrate : 1024 kBit/s
Quality : High
Add ID3 tag : No
Command line compressor : C:\Tool\CD\EAC10\FLAC\FLAC.EXE
Additional command line options : -8 -V -T "ARTIST=%artist%" -T "TITLE=%title%" -T "ALBUM=%albumtitle%" -T "DATE=%year%" -T "TRACKNUMBER=%tracknr%" -T "GENRE=%genre%" -T "PERFORMER=%albuminterpret%" -T "COMPOSER=%composer%" %haslyrics%--tag-from-file=LYRICS="%lyricsfile%"%haslyrics% -T "ALBUMARTIST=%albumartist%" -T "ALBUM ARTIST=%albumartist%" -T "DISCNUMBER=%cdnumber%" -T "TOTALDISCS=%totalcds%" -T "TOTALTRACKS=%numtracks%" -T "COMMENT=EAC V1.0 beta 3, Secure Mode, Test & Copy, AccurateRip, FLAC -8" %source% -o %dest%
TOC of the extracted CD
Track | Start | Length | Start sector | End sector
---------------------------------------------------------
1 | 0:00.33 | 5:35.62 | 33 | 25219
2 | 5:36.20 | 1:45.13 | 25220 | 33107
3 | 7:21.33 | 2:29.50 | 33108 | 44332
4 | 9:51.08 | 1:55.12 | 44333 | 52969
5 | 11:46.20 | 3:27.63 | 52970 | 68557
6 | 15:14.08 | 1:57.50 | 68558 | 77382
7 | 17:11.58 | 2:55.25 | 77383 | 90532
8 | 20:07.08 | 1:25.50 | 90533 | 96957
9 | 21:32.58 | 3:57.62 | 96958 | 114794
10 | 25:30.45 | 3:04.00 | 114795 | 128594
11 | 28:34.45 | 9:34.50 | 128595 | 171694
12 | 38:09.20 | 4:16.13 | 171695 | 190907
13 | 42:25.33 | 1:04.62 | 190908 | 195769
14 | 43:30.20 | 3:00.13 | 195770 | 209282
15 | 46:30.33 | 4:39.12 | 209283 | 230219
16 | 51:09.45 | 6:44.38 | 230220 | 260557
17 | 57:54.08 | 4:02.50 | 260558 | 278757
18 | 61:56.58 | 1:34.50 | 278758 | 285857
19 | 63:31.33 | 5:01.00 | 285858 | 308432
Track 1
Filename C:\! BTM\UL\Tony Oxley Celebration Orchestra - The Enchanted Messenger (1996) [FLAC]\01 - Section 1.wav
Pre-gap length 0:00:02.33
Peak level 96.3 %
Extraction speed 3.5 X
Track quality 100.0 %
Test CRC 8F49128F
Copy CRC 8F49128F
Accurately ripped (confidence 2) [C670C95B] (AR v1)
Copy OK
Track 2
Filename C:\! BTM\UL\Tony Oxley Celebration Orchestra - The Enchanted Messenger (1996) [FLAC]\02 - Section 2.wav
Peak level 69.7 %
Extraction speed 2.8 X
Track quality 100.0 %
Test CRC 72E15862
Copy CRC 72E15862
Accurately ripped (confidence 2) [B4D24E68] (AR v1)
Copy OK
Track 3
Filename C:\! BTM\UL\Tony Oxley Celebration Orchestra - The Enchanted Messenger (1996) [FLAC]\03 - Section 3.wav
Peak level 83.6 %
Extraction speed 3.1 X
Track quality 100.0 %
Test CRC 6D7851A7
Copy CRC 6D7851A7
Accurately ripped (confidence 2) [669C5F04] (AR v1)
Copy OK
Track 4
Filename C:\! BTM\UL\Tony Oxley Celebration Orchestra - The Enchanted Messenger (1996) [FLAC]\04 - Section 4.wav
Peak level 95.0 %
Extraction speed 2.3 X
Track quality 99.9 %
Test CRC A3A7A525
Copy CRC A3A7A525
Accurately ripped (confidence 2) [FB55F929] (AR v1)
Copy OK
Track 5
Filename C:\! BTM\UL\Tony Oxley Celebration Orchestra - The Enchanted Messenger (1996) [FLAC]\05 - Section 5.wav
Peak level 96.3 %
Extraction speed 2.8 X
Track quality 99.9 %
Test CRC 6D9E9403
Copy CRC 6D9E9403
Accurately ripped (confidence 2) [EB63552D] (AR v1)
Copy OK
Track 6
Filename C:\! BTM\UL\Tony Oxley Celebration Orchestra - The Enchanted Messenger (1996) [FLAC]\06 - Section 6.wav
Peak level 93.6 %
Extraction speed 3.0 X
Track quality 100.0 %
Test CRC F0014C32
Copy CRC F0014C32
Accurately ripped (confidence 2) [6D1F013C] (AR v1)
Copy OK
Track 7
Filename C:\! BTM\UL\Tony Oxley Celebration Orchestra - The Enchanted Messenger (1996) [FLAC]\07 - Section 7.wav
Peak level 83.7 %
Extraction speed 3.2 X
Track quality 100.0 %
Test CRC E6475FF2
Copy CRC E6475FF2
Accurately ripped (confidence 2) [5ECC2D6E] (AR v1)
Copy OK
Track 8
Filename C:\! BTM\UL\Tony Oxley Celebration Orchestra - The Enchanted Messenger (1996) [FLAC]\08 - Section 8.wav
Peak level 81.9 %
Extraction speed 2.0 X
Track quality 99.8 %
Test CRC CFE57985
Copy CRC CFE57985
Accurately ripped (confidence 2) [F6473B3C] (AR v1)
Copy OK
Track 9
Filename C:\! BTM\UL\Tony Oxley Celebration Orchestra - The Enchanted Messenger (1996) [FLAC]\09 - Section 9.wav
Peak level 71.5 %
Extraction speed 3.3 X
Track quality 100.0 %
Test CRC D4CB79B8
Copy CRC D4CB79B8
Accurately ripped (confidence 2) [BF77F06C] (AR v1)
Copy OK
Track 10
Filename C:\! BTM\UL\Tony Oxley Celebration Orchestra - The Enchanted Messenger (1996) [FLAC]\10 - Section 10.wav
Peak level 96.3 %
Extraction speed 3.2 X
Track quality 100.0 %
Test CRC 81129F69
Copy CRC 81129F69
Accurately ripped (confidence 2) [0801C5BB] (AR v1)
Copy OK
Track 11
Filename C:\! BTM\UL\Tony Oxley Celebration Orchestra - The Enchanted Messenger (1996) [FLAC]\11 - Section 11.wav
Peak level 91.0 %
Extraction speed 3.5 X
Track quality 99.9 %
Test CRC 7CFD2B6B
Copy CRC 7CFD2B6B
Accurately ripped (confidence 2) [B2CDF991] (AR v1)
Copy OK
Track 12
Filename C:\! BTM\UL\Tony Oxley Celebration Orchestra - The Enchanted Messenger (1996) [FLAC]\12 - Section 12.wav
Peak level 84.1 %
Extraction speed 3.4 X
Track quality 100.0 %
Test CRC A7090313
Copy CRC A7090313
Accurately ripped (confidence 2) [29F14F90] (AR v1)
Copy OK
Track 13
Filename C:\! BTM\UL\Tony Oxley Celebration Orchestra - The Enchanted Messenger (1996) [FLAC]\13 - Section 13.wav
Peak level 75.5 %
Extraction speed 2.5 X
Track quality 100.0 %
Test CRC F1221410
Copy CRC F1221410
Accurately ripped (confidence 2) [BE8F32D2] (AR v1)
Copy OK
Track 14
Filename C:\! BTM\UL\Tony Oxley Celebration Orchestra - The Enchanted Messenger (1996) [FLAC]\14 - Section 14.wav
Peak level 73.6 %
Extraction speed 3.2 X
Track quality 100.0 %
Test CRC B4A35CD3
Copy CRC B4A35CD3
Accurately ripped (confidence 2) [982291FC] (AR v1)
Copy OK
Track 15
Filename C:\! BTM\UL\Tony Oxley Celebration Orchestra - The Enchanted Messenger (1996) [FLAC]\15 - Section 15.wav
Peak level 83.4 %
Extraction speed 3.5 X
Track quality 100.0 %
Test CRC 20D6816D
Copy CRC 20D6816D
Accurately ripped (confidence 2) [55927405] (AR v1)
Copy OK
Track 16
Filename C:\! BTM\UL\Tony Oxley Celebration Orchestra - The Enchanted Messenger (1996) [FLAC]\16 - Section 16.wav
Peak level 82.5 %
Extraction speed 3.6 X
Track quality 100.0 %
Test CRC AEC1ACA6
Copy CRC AEC1ACA6
Accurately ripped (confidence 2) [A74EFBE3] (AR v1)
Copy OK
Track 17
Filename C:\! BTM\UL\Tony Oxley Celebration Orchestra - The Enchanted Messenger (1996) [FLAC]\17 - Section 17.wav
Peak level 90.0 %
Extraction speed 2.9 X
Track quality 99.9 %
Test CRC B73CA979
Copy CRC B73CA979
Accurately ripped (confidence 2) [069E779C] (AR v1)
Copy OK
Track 18
Filename C:\! BTM\UL\Tony Oxley Celebration Orchestra - The Enchanted Messenger (1996) [FLAC]\18 - Section 18.wav
Peak level 58.6 %
Extraction speed 2.8 X
Track quality 100.0 %
Test CRC BB7E8C29
Copy CRC BB7E8C29
Accurately ripped (confidence 2) [835FACD6] (AR v1)
Copy OK
Track 19
Filename C:\! BTM\UL\Tony Oxley Celebration Orchestra - The Enchanted Messenger (1996) [FLAC]\19 - Section 19.wav
Peak level 96.3 %
Extraction speed 3.3 X
Track quality 100.0 %
Test CRC 4A695666
Copy CRC 4A695666
Accurately ripped (confidence 2) [710CB4E8] (AR v1)
Copy OK
All tracks accurately ripped
No errors occurred
End of status report
==== Log checksum 5C872CDEC9B4539BDAB01641D6D6120CB9F7D5CEA8C63E0C4263CCF4ECE6D4C5 ====
 
Содержание индексной карты (.CUE)
REM GENRE Avantgarde
REM DATE 1994
REM DISCID 09101013
REM COMMENT "ExactAudioCopy v1.0b3"
PERFORMER "Tony Oxley Celebration Orchestra"
TITLE "Enchanted Messenger"
FILE "01 - Section 1.wav" WAVE
TRACK 01 AUDIO
TITLE "Section 1"
PERFORMER "Tony Oxley Celebration Orchestra"
PREGAP 00:00:33
INDEX 01 00:00:00
INDEX 02 01:53:50
INDEX 03 02:54:62
INDEX 04 04:15:00
FILE "02 - Section 2.wav" WAVE
TRACK 02 AUDIO
TITLE "Section 2"
PERFORMER "Tony Oxley Celebration Orchestra"
INDEX 01 00:00:00
FILE "03 - Section 3.wav" WAVE
TRACK 03 AUDIO
TITLE "Section 3"
PERFORMER "Tony Oxley Celebration Orchestra"
INDEX 01 00:00:00
FILE "04 - Section 4.wav" WAVE
TRACK 04 AUDIO
TITLE "Section 4"
PERFORMER "Tony Oxley Celebration Orchestra"
INDEX 01 00:00:00
FILE "05 - Section 5.wav" WAVE
TRACK 05 AUDIO
TITLE "Section 5"
PERFORMER "Tony Oxley Celebration Orchestra"
INDEX 01 00:00:00
FILE "06 - Section 6.wav" WAVE
TRACK 06 AUDIO
TITLE "Section 6"
PERFORMER "Tony Oxley Celebration Orchestra"
INDEX 01 00:00:00
FILE "07 - Section 7.wav" WAVE
TRACK 07 AUDIO
TITLE "Section 7"
PERFORMER "Tony Oxley Celebration Orchestra"
INDEX 01 00:00:00
FILE "08 - Section 8.wav" WAVE
TRACK 08 AUDIO
TITLE "Section 8"
PERFORMER "Tony Oxley Celebration Orchestra"
INDEX 01 00:00:00
FILE "09 - Section 9.wav" WAVE
TRACK 09 AUDIO
TITLE "Section 9"
PERFORMER "Tony Oxley Celebration Orchestra"
INDEX 01 00:00:00
FILE "10 - Section 10.wav" WAVE
TRACK 10 AUDIO
TITLE "Section 10"
PERFORMER "Tony Oxley Celebration Orchestra"
INDEX 01 00:00:00
FILE "11 - Section 11.wav" WAVE
TRACK 11 AUDIO
TITLE "Section 11"
PERFORMER "Tony Oxley Celebration Orchestra"
INDEX 01 00:00:00
FILE "12 - Section 12.wav" WAVE
TRACK 12 AUDIO
TITLE "Section 12"
PERFORMER "Tony Oxley Celebration Orchestra"
INDEX 01 00:00:00
FILE "13 - Section 13.wav" WAVE
TRACK 13 AUDIO
TITLE "Section 13"
PERFORMER "Tony Oxley Celebration Orchestra"
INDEX 01 00:00:00
FILE "14 - Section 14.wav" WAVE
TRACK 14 AUDIO
TITLE "Section 14"
PERFORMER "Tony Oxley Celebration Orchestra"
INDEX 01 00:00:00
FILE "15 - Section 15.wav" WAVE
TRACK 15 AUDIO
TITLE "Section 15"
PERFORMER "Tony Oxley Celebration Orchestra"
INDEX 01 00:00:00
FILE "16 - Section 16.wav" WAVE
TRACK 16 AUDIO
TITLE "Section 16"
PERFORMER "Tony Oxley Celebration Orchestra"
INDEX 01 00:00:00
FILE "17 - Section 17.wav" WAVE
TRACK 17 AUDIO
TITLE "Section 17"
PERFORMER "Tony Oxley Celebration Orchestra"
INDEX 01 00:00:00
FILE "18 - Section 18.wav" WAVE
TRACK 18 AUDIO
TITLE "Section 18"
PERFORMER "Tony Oxley Celebration Orchestra"
INDEX 01 00:00:00
FILE "19 - Section 19.wav" WAVE
TRACK 19 AUDIO
TITLE "Section 19"
PERFORMER "Tony Oxley Celebration Orchestra"
INDEX 01 00:00:00
Доп. информация:
Recorded at JazzFest Berlin '94 in November 1994.
 
Об исполнителе (The Penguin Guide to Jazz on CD - Eighth Edition)
A superb large-scale composition for Oxley's Celebration Orchestra, performed at the 1994 JazzFest Berlin, it consists of 19 interrelated parts or sections. The ensemble is very percussion-heavy, though Oxley doubles as drummer and conductor. Some of the material is atonal or pantonal but, as ever, Oxley gives a strong impression of pulse and swing.
 
Об альбоме (Ron Welburn/JazzTimes)
This 1994 Berliner Jazztage program conceptualized by Tony Oxley, primarily a drummer-percussionist and a Briton residing in Germany, is an acquired taste for the unsuspecting listener. Bill Dixon's breathy fragmented textures contribute to the astute navigation of The Enchanted Messenger's 19 sections. The veteran Oxley directs his ensemble of strings, percussion, voice, electronics, and brass to achieve powerful undercurrents in sound collage. Mobile units signify chance elements, and resulting timbres obliterate the boundaries between music, architecture, and abstract lithography (cover art by Oxley and Dixon). The two featured musicians, along with trombonist Johannes Bauer and others, have been percolating for decades this performance system, and the stellar music all create is well beyond the merely iconoclastic.
 
Состав
Bill Dixon - trumpet, flugelhorn
Alex Kolkowski - violin
Philipp Wachsmann - violin, electronics
Alfred Zimmerlin - cello
Marcio Mattos - cello
Ernst-Ludwig Petrowsky - saxes, clarinet
Frank Gratkowski - saxes, bass clarinet
Johannes Bauer - trombone
Matt Wand - electronics
Pat Thomas - piano, electronics
Phil Minton - vocal
Joe Thönes - drums, percussion
Stefan Hölker - drums, percussion
Tony Levin - drums, percussion
Tony Oxley - drums, percussion
Any questions -> support@pro-jazz.com. По всем вопросам пишите -> support@pro-jazz.com
07:24
121
Нет комментариев. Ваш будет первым!