Вы используете незарегистрированную версию компонента "Вкладки"!

Поиск

(Free Improvisation) Stan Tracey - Duets (Sonatinas/TNT) - 1993, FLAC (tracks+.cue), lossless

(Free Improvisation) Stan Tracey - Duets (Sonatinas/TNT) - 1993, FLAC (tracks+.cue), lossless
Треклист:
Stan Tracey - Duets (Sonatinas/TNT)
Жанр: Free Improvisation
Страна-производитель диска: UK
Год издания: 1993
Издатель (лейбл): Blue Note International
Номер по каталогу: CDP 0777 7 89450 2 4
Аудиокодек: FLAC (*.flac)
Тип рипа: tracks+.cue
Битрейт аудио: lossless
Продолжительность: 1:16:33
Источник (релизер): собственный рип с оригинального диска.
Наличие сканов в содержимом раздачи: да
Треклист:
01. Three Against One 6:25
02. Still On The Run 4:20
03. Murphy's Dream 3:40
04. Fleeting Glances 8:00
05. Summer Hobo 5:55
06. Chalk Blue 5:00
07. Ominoso 8:05
08. Dance 1 7:10
09. Dance 2 7:25
10. Skipover 3:00
11. Biformis 5:30
12. TNT 11:05
 
Лог создания рипа
Exact Audio Copy V1.0 beta 3 from 29. August 2011
EAC extraction logfile from 26. October 2012, 18:16
Stan Tracey / Duets
Used drive : TSSTcorpCDDVDW SH-S222A Adapter: 1 ID: 0
Read mode : Secure
Utilize accurate stream : Yes
Defeat audio cache : Yes
Make use of C2 pointers : No
Read offset correction : 6
Overread into Lead-In and Lead-Out : No
Fill up missing offset samples with silence : Yes
Delete leading and trailing silent blocks : No
Null samples used in CRC calculations : Yes
Used interface : Native Win32 interface for Win NT & 2000
Gap handling : Appended to previous track
Used output format : User Defined Encoder
Selected bitrate : 1024 kBit/s
Quality : High
Add ID3 tag : No
Command line compressor : C:\Tool\CD\EAC10\FLAC\FLAC.EXE
Additional command line options : -8 -V -T "ARTIST=%artist%" -T "TITLE=%title%" -T "ALBUM=%albumtitle%" -T "DATE=%year%" -T "TRACKNUMBER=%tracknr%" -T "GENRE=%genre%" -T "PERFORMER=%albuminterpret%" -T "COMPOSER=%composer%" %haslyrics%--tag-from-file=LYRICS="%lyricsfile%"%haslyrics% -T "ALBUMARTIST=%albumartist%" -T "ALBUM ARTIST=%albumartist%" -T "DISCNUMBER=%cdnumber%" -T "TOTALDISCS=%totalcds%" -T "TOTALTRACKS=%numtracks%" -T "COMMENT=EAC V1.0 beta 3, Secure Mode, Test & Copy, AccurateRip, FLAC -8" %source% -o %dest%
TOC of the extracted CD
Track | Start | Length | Start sector | End sector
---------------------------------------------------------
1 | 0:00.33 | 6:29.65 | 33 | 29272
2 | 6:30.23 | 4:24.72 | 29273 | 49144
3 | 10:55.20 | 3:44.55 | 49145 | 65999
4 | 14:40.00 | 8:04.45 | 66000 | 102344
5 | 22:44.45 | 6:02.13 | 102345 | 129507
6 | 28:46.58 | 5:06.62 | 129508 | 152519
7 | 33:53.45 | 8:08.45 | 152520 | 189164
8 | 42:02.15 | 7:16.23 | 189165 | 221887
9 | 49:18.38 | 7:30.47 | 221888 | 255684
10 | 56:49.10 | 3:07.03 | 255685 | 269712
11 | 59:56.13 | 5:34.55 | 269713 | 294817
12 | 65:30.68 | 11:09.05 | 294818 | 344997
Track 1
Filename C:\! BTM\UL\Stan Tracey - Duets (Sonatinas - TNT) (1993) [FLAC]\01 - Three Against One.wav
Pre-gap length 0:00:02.33
Peak level 68.8 %
Extraction speed 3.5 X
Track quality 100.0 %
Test CRC 419D4171
Copy CRC 419D4171
Accurately ripped (confidence 1) [66679543] (AR v1)
Copy OK
Track 2
Filename C:\! BTM\UL\Stan Tracey - Duets (Sonatinas - TNT) (1993) [FLAC]\02 - Still On The Run.wav
Pre-gap length 0:00:04.55
Peak level 78.3 %
Extraction speed 3.0 X
Track quality 99.9 %
Test CRC DECF528C
Copy CRC DECF528C
Accurately ripped (confidence 1) [5A2421C2] (AR v1)
Copy OK
Track 3
Filename C:\! BTM\UL\Stan Tracey - Duets (Sonatinas - TNT) (1993) [FLAC]\03 - Murphy's Dream.wav
Pre-gap length 0:00:02.30
Peak level 70.4 %
Extraction speed 2.9 X
Track quality 99.9 %
Test CRC CCACE22C
Copy CRC CCACE22C
Accurately ripped (confidence 1) [9DB54FDC] (AR v1)
Copy OK
Track 4
Filename C:\! BTM\UL\Stan Tracey - Duets (Sonatinas - TNT) (1993) [FLAC]\04 - Fleeting Glances.wav
Pre-gap length 0:00:04.37
Peak level 61.6 %
Extraction speed 3.7 X
Track quality 100.0 %
Test CRC 99955D69
Copy CRC 99955D69
Accurately ripped (confidence 1) [42E95B70] (AR v1)
Copy OK
Track 5
Filename C:\! BTM\UL\Stan Tracey - Duets (Sonatinas - TNT) (1993) [FLAC]\05 - Summer Hobo.wav
Pre-gap length 0:00:05.07
Peak level 57.1 %
Extraction speed 3.2 X
Track quality 99.9 %
Test CRC F3C19B4F
Copy CRC F3C19B4F
Accurately ripped (confidence 1) [48EE43FD] (AR v1)
Copy OK
Track 6
Filename C:\! BTM\UL\Stan Tracey - Duets (Sonatinas - TNT) (1993) [FLAC]\06 - Chalk Blue.wav
Pre-gap length 0:00:03.18
Peak level 72.9 %
Extraction speed 3.6 X
Track quality 100.0 %
Test CRC BFADED96
Copy CRC BFADED96
Accurately ripped (confidence 1) [ADC79881] (AR v1)
Copy OK
Track 7
Filename C:\! BTM\UL\Stan Tracey - Duets (Sonatinas - TNT) (1993) [FLAC]\07 - Ominoso.wav
Pre-gap length 0:00:02.55
Peak level 100.0 %
Extraction speed 3.7 X
Track quality 100.0 %
Test CRC 1CCC1600
Copy CRC 1CCC1600
Accurately ripped (confidence 1) [6A1E9B94] (AR v1)
Copy OK
Track 8
Filename C:\! BTM\UL\Stan Tracey - Duets (Sonatinas - TNT) (1993) [FLAC]\08 - Dance 1.wav
Pre-gap length 0:00:04.30
Peak level 84.3 %
Extraction speed 3.7 X
Track quality 100.0 %
Test CRC E069FD2B
Copy CRC E069FD2B
Accurately ripped (confidence 1) [AB321EE7] (AR v1)
Copy OK
Track 9
Filename C:\! BTM\UL\Stan Tracey - Duets (Sonatinas - TNT) (1993) [FLAC]\09 - Dance 2.wav
Pre-gap length 0:00:00.03
Peak level 84.4 %
Extraction speed 3.7 X
Track quality 100.0 %
Test CRC 8320B443
Copy CRC 8320B443
Accurately ripped (confidence 1) [F47C1BC1] (AR v1)
Copy OK
Track 10
Filename C:\! BTM\UL\Stan Tracey - Duets (Sonatinas - TNT) (1993) [FLAC]\10 - Skipover.wav
Pre-gap length 0:00:00.02
Peak level 82.6 %
Extraction speed 3.3 X
Track quality 100.0 %
Test CRC 233B19C4
Copy CRC 233B19C4
Accurately ripped (confidence 1) [92419255] (AR v1)
Copy OK
Track 11
Filename C:\! BTM\UL\Stan Tracey - Duets (Sonatinas - TNT) (1993) [FLAC]\11 - Biformis.wav
Pre-gap length 0:00:00.03
Peak level 89.8 %
Extraction speed 3.6 X
Track quality 100.0 %
Test CRC 366B3D08
Copy CRC 366B3D08
Accurately ripped (confidence 1) [C70B9209] (AR v1)
Copy OK
Track 12
Filename C:\! BTM\UL\Stan Tracey - Duets (Sonatinas - TNT) (1993) [FLAC]\12 - TNT.wav
Pre-gap length 0:00:00.03
Peak level 86.4 %
Extraction speed 3.7 X
Track quality 100.0 %
Test CRC 8990DE7C
Copy CRC 8990DE7C
Accurately ripped (confidence 1) [800F2E20] (AR v1)
Copy OK
All tracks accurately ripped
No errors occurred
End of status report
==== Log checksum 3E716E7CF222E07CACE037B40E44228D52CE5A7177B18A8A7207A1EDE2248C53 ====
 
Содержание индексной карты (.CUE)
REM GENRE Jazz
REM DATE 1993
REM DISCID B111F70C
REM COMMENT "ExactAudioCopy v1.0b3"
PERFORMER "Stan Tracey"
TITLE "Duets"
FILE "01 - Three Against One.wav" WAVE
TRACK 01 AUDIO
TITLE "Three Against One"
PERFORMER "Stan Tracey"
PREGAP 00:00:33
INDEX 01 00:00:00
TRACK 02 AUDIO
TITLE "Still On The Run"
PERFORMER "Stan Tracey"
INDEX 00 06:25:10
FILE "02 - Still On The Run.wav" WAVE
INDEX 01 00:00:00
TRACK 03 AUDIO
TITLE "Murphy's Dream"
PERFORMER "Stan Tracey"
INDEX 00 04:22:42
FILE "03 - Murphy's Dream.wav" WAVE
INDEX 01 00:00:00
TRACK 04 AUDIO
TITLE "Fleeting Glances"
PERFORMER "Stan Tracey"
INDEX 00 03:40:18
FILE "04 - Fleeting Glances.wav" WAVE
INDEX 01 00:00:00
TRACK 05 AUDIO
TITLE "Summer Hobo"
PERFORMER "Stan Tracey"
INDEX 00 07:59:38
FILE "05 - Summer Hobo.wav" WAVE
INDEX 01 00:00:00
TRACK 06 AUDIO
TITLE "Chalk Blue"
PERFORMER "Stan Tracey"
INDEX 00 05:58:70
FILE "06 - Chalk Blue.wav" WAVE
INDEX 01 00:00:00
TRACK 07 AUDIO
TITLE "Ominoso"
PERFORMER "Stan Tracey"
INDEX 00 05:04:07
FILE "07 - Ominoso.wav" WAVE
INDEX 01 00:00:00
TRACK 08 AUDIO
TITLE "Dance 1"
PERFORMER "Stan Tracey"
INDEX 00 08:04:15
FILE "08 - Dance 1.wav" WAVE
INDEX 01 00:00:00
TRACK 09 AUDIO
TITLE "Dance 2"
PERFORMER "Stan Tracey"
INDEX 00 07:16:20
FILE "09 - Dance 2.wav" WAVE
INDEX 01 00:00:00
TRACK 10 AUDIO
TITLE "Skipover"
PERFORMER "Stan Tracey"
INDEX 00 07:30:45
FILE "10 - Skipover.wav" WAVE
INDEX 01 00:00:00
TRACK 11 AUDIO
TITLE "Biformis"
PERFORMER "Stan Tracey"
INDEX 00 03:07:00
FILE "11 - Biformis.wav" WAVE
INDEX 01 00:00:00
TRACK 12 AUDIO
TITLE "TNT"
PERFORMER "Stan Tracey"
INDEX 00 05:34:52
FILE "12 - TNT.wav" WAVE
INDEX 01 00:00:00
Доп. информация:
TNT (tracks 8 to 12) recorded live in London at the Wigmore Hall 1974 December 21. Originally issued on Steam Records SJ 104.
Sonatinas (tracks 1 to 7) recorded on 24/25 April 1978 at South Hill Park Arts Center, Bracknell. Overdub & Remix on 8/9 May 1978 at Hampstead. Originally issued on Steam Records SJ 106
 
Об альбоме (GL/Gramophone)
The tracks with Surman are the more immediately appealing, thanks to their wide range of instrumental colours. Surman plays baritone and soprano saxes, bass clarinet and tenor recorder, and both men have occasional and discreet recourse to synthesizers. There is a pleasing variety of mood too, through the propulsive Still on the Run, the charming Summer Hobo and Chalk Blue's wistful balladry. Though many of the pieces are totally improvised, Tracey and Su-man shape them with a sensitive, disciplined touch.
The live two-piano tracks have less sense of overall form, perhaps because Tippett is a more volatile player than Surman, and the joy of "TNT" is, appropriately, in its explosive moment-to-moment interplay. There is excitement aplenty, whirling exchanges of hammered trills and percussive eruptions, but the players seem disinclined to sustain their more delicate interludes. By the end, the barnstorming is sounding more like self-indulgence.
 
Состав
Stan Tracey - Piano, Synthesisers (tracks: 1 to 7)
John Surman - Baritone Saxophone, Soprano Saxophone, Bass Clarinet, Tenor Recorder, Synthesisers (tracks: 1 to 7)
Stan Tracey - Piano (tracks: 8 to 12)
Keith Tippett - Piano (tracks: 8 to 12)
Any questions -> support@pro-jazz.com. По всем вопросам пишите -> support@pro-jazz.com
07:25
147
Нет комментариев. Ваш будет первым!