Вы используете незарегистрированную версию компонента "Вкладки"!

Поиск

(Free Jazz, Moers Music) Sunny Murray Trio (David Murray, Malachi Favors, Cheikh Tidiane Fall) - Live at Moers Festival - 1985 (1979), FLAC (tracks+.cue), lossless

(Free Jazz, Moers Music) Sunny Murray Trio (David Murray, Malachi Favors, Cheikh Tidiane Fall) - Live at Moers Festival - 1985 (1979), FLAC (tracks+.cue), lossless
Треклист:
Sunny Murray Trio / Live at Moers Festival
Жанр: Free Jazz, Moers Music
Страна-производитель диска: Germany
Год издания: 1985 (1979)
Издатель (лейбл): Moers Music
Номер по каталогу: 01054 CD
Аудиокодек: FLAC (*.flac)
Тип рипа: tracks+.cue
Битрейт аудио: lossless
Продолжительность: 48:20
Источник (релизер): я
Наличие сканов в содержимом раздачи: да
Треклист:
1. Sweet Lovely 9:35
2. German Dilemma 15:37
3. Tree Tops 8:41
4. Happiness Tears 14:26
All compositions by Sunny Murray.
Recorded live at the 8th Moers International New Jazz Festival, June 3, 1979.
Sunny Murray – Drums
David Murray – Tenor Saxophone, Bass Clarinet
Malachi Favors – Bass, Percussion
Cheikh Tidiane Fall – Congas
 
Лог создания рипа
Exact Audio Copy V1.0 beta 3 from 29. August 2011
EAC extraction logfile from 9. November 2013, 11:25
Sunny Murray Trio / Live at Moers Festival
Used drive : hp BD E DS6E2LH Adapter: 0 ID: 1
Read mode : Secure
Utilize accurate stream : Yes
Defeat audio cache : Yes
Make use of C2 pointers : No
Read offset correction : 6
Overread into Lead-In and Lead-Out : No
Fill up missing offset samples with silence : Yes
Delete leading and trailing silent blocks : No
Null samples used in CRC calculations : Yes
Used interface : Native Win32 interface for Win NT & 2000
Gap handling : Appended to previous track
Used output format : User Defined Encoder
Selected bitrate : 768 kBit/s
Quality : High
Add ID3 tag : No
Command line compressor : C:\Program Files (x86)\Exact Audio Copy\Flac\flac.exe
Additional command line options : -8 -V -T "ARTIST=%artist%" -T "TITLE=%title%" -T "ALBUM=%albumtitle%" -T "DATE=%year%" -T "TRACKNUMBER=%tracknr%" -T "GENRE=%genre%" -T "PERFORMER=%albuminterpret%" -T "COMPOSER=%composer%" %haslyrics%--tag-from-file=LYRICS="%lyricsfile%"%haslyrics% -T "ALBUMARTIST=%albumartist%" -T "DISCNUMBER=%cdnumber%" -T "TOTALDISCS=%totalcds%" -T "TOTALTRACKS=%numtracks%" -T "COMMENT=%comment%" %source% -o %dest%
TOC of the extracted CD
Track | Start | Length | Start sector | End sector
---------------------------------------------------------
1 | 0:00.00 | 9:35.25 | 0 | 43149
2 | 9:35.25 | 15:36.67 | 43150 | 113416
3 | 25:12.17 | 8:41.10 | 113417 | 152501
4 | 33:53.27 | 14:26.23 | 152502 | 217474
Track 1
Filename C:\EAC rips\01 - Sweet Lovely.wav
Pre-gap length 0:00:02.00
Peak level 86.2 %
Extraction speed 2.6 X
Track quality 99.9 %
Test CRC CB9B9F73
Copy CRC CB9B9F73
Accurately ripped (confidence 1) [41EFB865] (AR v2)
Copy OK
Track 2
Filename C:\EAC rips\02 - German Dilemma.wav
Peak level 96.9 %
Extraction speed 3.8 X
Track quality 99.9 %
Test CRC 83BC3E5F
Copy CRC 83BC3E5F
Accurately ripped (confidence 1) [38698AA0] (AR v2)
Copy OK
Track 3
Filename C:\EAC rips\03 - Tree Tops.wav
Pre-gap length 0:00:01.00
Peak level 77.1 %
Extraction speed 4.6 X
Track quality 100.0 %
Test CRC 67BD8EB3
Copy CRC 67BD8EB3
Accurately ripped (confidence 1) [0455DCD7] (AR v2)
Copy OK
Track 4
Filename C:\EAC rips\04 - Happiness Tears.wav
Peak level 81.8 %
Extraction speed 5.2 X
Track quality 100.0 %
Test CRC AFF65799
Copy CRC AFF65799
Accurately ripped (confidence 1) [27EAEAF1] (AR v2)
Copy OK
All tracks accurately ripped
No errors occurred
End of status report
---- CUETools DB Plugin V2.1.4
[CTDB TOCID: SyugJcjecCCHAVLfFcDwO4ZbA2o-] found
Submit result: already submitted
Track | CTDB Status
1 | (2/5) Accurately ripped, or (1/5) differs in 123 samples @01:41:06,02:20:05-02:20:06, or (1/5) differs in 60 samples @02:20:05-02:20:06, or (1/5) differs in 68 samples @02:44:69
2 | (5/5) Accurately ripped
3 | (5/5) Accurately ripped
4 | (5/5) Accurately ripped
==== Log checksum F286ACA02443637375AF4D51C45F4AF0698A7B7BF202988704E15B7F3CA8AC53 ====
 
Содержание индексной карты (.CUE)
REM GENRE Jazz
REM DATE 1979
REM DISCID 2A0B5304
REM COMMENT "ExactAudioCopy v1.0b3"
PERFORMER "Sunny Murray Trio"
TITLE "Live at Moers Festival"
FILE "01 - Sweet Lovely.wav" WAVE
TRACK 01 AUDIO
TITLE "Sweet Lovely"
PERFORMER "Sunny Murray Trio"
INDEX 01 00:00:00
FILE "02 - German Dilemma.wav" WAVE
TRACK 02 AUDIO
TITLE "German Dilemma"
PERFORMER "Sunny Murray Trio"
INDEX 01 00:00:00
TRACK 03 AUDIO
TITLE "Tree Tops"
PERFORMER "Sunny Murray Trio"
INDEX 00 15:35:67
FILE "03 - Tree Tops.wav" WAVE
INDEX 01 00:00:00
FILE "04 - Happiness Tears.wav" WAVE
TRACK 04 AUDIO
TITLE "Happiness Tears"
PERFORMER "Sunny Murray Trio"
INDEX 01 00:00:00
По всем вопросам пишите личное сообщение пользователю M0p94ok.
20:18
144
Нет комментариев. Ваш будет первым!