Вы используете незарегистрированную версию компонента "Вкладки"!

Поиск

(Avant-Garde Jazz, Free Improvisation, Nine Winds) Richard Grossman & Friends (John Carter, Vinny Golia, Ken Filiano, Alex Cline) - In The Air - 1991, FLAC (tracks+.cue), lossless

(Avant-Garde Jazz, Free Improvisation, Nine Winds) Richard Grossman & Friends (John Carter, Vinny Golia, Ken Filiano, Alex Cline) - In The Air - 1991, FLAC (tracks+.cue), lossless
Треклист:
Richard Grossman & Friends / In The Air
Жанр: Avant-Garde Jazz, Free Improvisation, Nine Winds
Страна-производитель диска: US
Год издания: 1991
Издатель (лейбл): 9 Winds Records
Номер по каталогу: NWCD 0146
Страна: US
Аудиокодек: FLAC (*.flac)
Тип рипа: tracks+.cue
Битрейт аудио: lossless
Продолжительность: 74:27
Источник (релизер): свой фирменный диск
Наличие сканов в содержимом раздачи:
Треклист:
1. Extra Hands 10:45
2. A Hard Act To Follow 17:27
3. Everything Else Is Away 33:39
4. Henny Youngman's Bird Imitation 12:34
 
Лог создания рипа
Exact Audio Copy V1.0 beta 3 from 29. August 2011
EAC extraction logfile from 8. November 2013, 21:47
Richard Grossman & Friends / In The Air
Used drive : PIONEER DVD-RW DVR-115D Adapter: 0 ID: 0
Read mode : Secure
Utilize accurate stream : Yes
Defeat audio cache : Yes
Make use of C2 pointers : No
Read offset correction : 48
Overread into Lead-In and Lead-Out : No
Fill up missing offset samples with silence : Yes
Delete leading and trailing silent blocks : No
Null samples used in CRC calculations : Yes
Used interface : Installed external ASPI interface
Gap handling : Appended to previous track
Used output format : User Defined Encoder
Selected bitrate : 896 kBit/s
Quality : High
Add ID3 tag : No
Command line compressor : C:\Program Files\Exact Audio Copy\FLAC\FLAC.EXE
Additional command line options : -6 -V -T "ARTIST=%artist%" -T "TITLE=%title%" -T "ALBUM=%albumtitle%" -T "DATE=%year%" -T "TRACKNUMBER=%tracknr%" -T "GENRE=%genre%" -T "COMMENT=%comment%" -T "BAND=%albuminterpret%" -T "COMPOSER=%composer%" %haslyrics%--tag-from-file=LYRICS="%lyricsfile%"%haslyrics% -T "DISCNUMBER=%cdnumber%" -T "TOTALDISCS=%totalcds%" -T "TOTALTRACKS=%numtracks%" %hascover%--picture="%coverfile%"%hascover% %source% -o %dest%
TOC of the extracted CD
Track | Start | Length | Start sector | End sector
---------------------------------------------------------
1 | 0:00.00 | 10:47.68 | 0 | 48592
2 | 10:47.68 | 17:30.15 | 48593 | 127357
3 | 28:18.08 | 33:31.20 | 127358 | 278202
4 | 61:49.28 | 12:37.72 | 278203 | 335049
Track 1
Filename D:\zzz\01 - Extra Hands.wav
Pre-gap length 0:00:02.00
Peak level 89.6 %
Extraction speed 5.5 X
Track quality 100.0 %
Test CRC CF3ED6AD
Copy CRC CF3ED6AD
Accurately ripped (confidence 2) [219C06E6] (AR v1)
Copy OK
Track 2
Filename D:\zzz\02 - A Hard Act To Follow.wav
Pre-gap length 0:00:02.10
Peak level 89.6 %
Extraction speed 7.0 X
Track quality 100.0 %
Test CRC 43E4E825
Copy CRC 43E4E825
Accurately ripped (confidence 2) [04F03D26] (AR v1)
Copy OK
Track 3
Filename D:\zzz\03 - Everything Else Is Away.wav
Pre-gap length 0:00:02.05
Peak level 89.5 %
Extraction speed 8.8 X
Track quality 99.9 %
Test CRC FC404119
Copy CRC FC404119
Accurately ripped (confidence 2) [70C1B429] (AR v1)
Copy OK
Track 4
Filename D:\zzz\04 - Henny Youngman's Bird Imitation.wav
Pre-gap length 0:00:02.03
Peak level 94.6 %
Extraction speed 9.5 X
Track quality 99.9 %
Test CRC 44B20279
Copy CRC 44B20279
Accurately ripped (confidence 2) [A502038F] (AR v1)
Copy OK
All tracks accurately ripped
No errors occurred
End of status report
==== Log checksum 649E9D76C2021D46479B413693FC06C312DDE2F4BBA9EAD4F17F52CC3238E9CA ====
 
Содержание индексной карты (.CUE)
REM GENRE "Avant-Garde Jazz"
REM DATE 1991
REM DISCID 29117304
REM COMMENT "ExactAudioCopy v1.0b3"
PERFORMER "Richard Grossman & Friends"
TITLE "In The Air"
FILE "01 - Extra Hands.wav" WAVE
TRACK 01 AUDIO
TITLE "Extra Hands"
PERFORMER "Richard Grossman & Friends"
INDEX 01 00:00:00
TRACK 02 AUDIO
TITLE "A Hard Act To Follow"
PERFORMER "Richard Grossman & Friends"
INDEX 00 10:45:58
FILE "02 - A Hard Act To Follow.wav" WAVE
INDEX 01 00:00:00
TRACK 03 AUDIO
TITLE "Everything Else Is Away"
PERFORMER "Richard Grossman & Friends"
INDEX 00 17:28:10
FILE "03 - Everything Else Is Away.wav" WAVE
INDEX 01 00:00:00
TRACK 04 AUDIO
TITLE "Henny Youngman's Bird Imitation"
PERFORMER "Richard Grossman & Friends"
INDEX 00 33:29:17
FILE "04 - Henny Youngman's Bird Imitation.wav" WAVE
INDEX 01 00:00:00
 
Лог проверки качества
d:\>d:\aucdtect -d/-m0 d:\zzz\*.wav
auCDtect: CD records authenticity detector, version 0.8.2
Copyright (c) 2004 Oleg Berngardt. All rights reserved.
Copyright (c) 2004 Alexander Djourik. All rights reserved.
------------------------------------------------------------
Processing file: [01. Extra Hands.wav]
------------------------------------------------------------
This track looks like CDDA with probability 100%
------------------------------------------------------------
Processing file: [02. A Hard Act To Follow.wav]
------------------------------------------------------------
This track looks like CDDA with probability 100%
------------------------------------------------------------
Processing file: [03. Everything Else Is Away.wav]
------------------------------------------------------------
This track looks like CDDA with probability 100%
------------------------------------------------------------
Processing file: [04. Henny Youngman's Bird Imitation.wav]
------------------------------------------------------------
This track looks like CDDA with probability 100%
------------------------------------------------------------
Final Conclusion:
------------------------------------------------------------
These tracks looks like CDDA with probability 100%
Доп. информация:
 
Album Info
2. by Vinny Golia. All other music is improvised, with titles by Dorothea Grossman
Recorded live (two-track digital processor) by Jim Lloyd of Melongem Productions
Tracks 1,2 & 4: McCabe's, Santa Monica, California, 10/1/89
Track 3: Southern California Institute Of Architecture, Santa Monica, California, 12/2/89
Mastered by John Golden at K-Disc
Cover & design by Mel Kangleon & Mars/L.A.
Back cover photo by Brian Cross
Other photos by Karen Cline
 
Состав
Richard Grossman: piano
John Carter: clarinet
Vinny Golia: bass clarinet, sopranino & soprano saxophones
Ken Filiano: bass
Alex Cline: percussion
Any questions -> support@pro-jazz.com. По всем вопросам пишите -> support@pro-jazz.com
20:17
114
Нет комментариев. Ваш будет первым!