Вы используете незарегистрированную версию компонента "Вкладки"!

Поиск

(Avant-Garde, Free Jazz, Deep House) Kahil El'Zabar - Deeper Soul Remix Project (2CDs) - 2006, FLAC (tracks+.cue), lossless

(Avant-Garde, Free Jazz, Deep House) Kahil El'Zabar - Deeper Soul Remix Project (2CDs) - 2006, FLAC (tracks+.cue), lossless
Треклист:
Kahil El'Zabar / Deeper Soul Remix Project (2CDs)
Жанр: Avant-Garde, Free Jazz, Deep House
Год издания: 2006
Издатель (лейбл): Deeper Sound Recordings
Номер по каталогу: DSRCD001
Аудиокодек: FLAC (*.flac)
Тип рипа: tracks+.cue
Битрейт аудио: lossless
Продолжительность: 51:26 + 26:10
Источник (релизер): я
Наличие сканов в содержимом раздачи: да
Треклист:
Remixes CD One
1. Our Time Is Now (Kahil El’Zabar & Kemit Sources, IG Culture remix) 8:43
2. Ancestral Song (Ethnic Heritage Ensemble, Osunlade Remix) 6:02
3. Running in the Streets (Ethnic Heritage Ensemble, Charles Webster remix) 7:34
4. He’s Got the Whole World in His Hand (Ethnic Heritage Ensemble, Henrik Schwarz remix) 9:40
5. Ancestral Song (Ethnic Heritage Ensemble, Kemit Sources remix) 5:33
6. Our Time Is Now (Kahil El’Zabar & Kemit Sources, original mix) 8:04
7. Running in the Streets (Ethnic Heritage Ensemble, Djinji Brown remix) 5:51
Originals CD Two
1. Running in the Streets (Ethnic Heritage Ensemble, previously unreleased) 5:55
2. Ancestral Song (Ethnic Heritage Ensemble, remastered) 10:11
3. He’s Got the Whole World in His Hands (Ethnic Heritage Ensemble, previously unreleased) 10:04
 
Лог создания рипа
 
Disc 1
Exact Audio Copy V1.0 beta 3 from 29. August 2011
EAC extraction logfile from 8. November 2013, 14:30
Kahil El'Zabar / Deeper Soul Remix Project (Remixes CD One)
Used drive : SlimtypeeNAU508 5 Adapter: 1 ID: 0
Read mode : Secure
Utilize accurate stream : Yes
Defeat audio cache : Yes
Make use of C2 pointers : No
Read offset correction : 6
Overread into Lead-In and Lead-Out : No
Fill up missing offset samples with silence : Yes
Delete leading and trailing silent blocks : No
Null samples used in CRC calculations : Yes
Used interface : Native Win32 interface for Win NT & 2000
Gap handling : Appended to previous track
Used output format : User Defined Encoder
Selected bitrate : 768 kBit/s
Quality : High
Add ID3 tag : No
Command line compressor : C:\Program Files (x86)\Exact Audio Copy\Flac\flac.exe
Additional command line options : -8 -V -T "ARTIST=%artist%" -T "TITLE=%title%" -T "ALBUM=%albumtitle%" -T "DATE=%year%" -T "TRACKNUMBER=%tracknr%" -T "GENRE=%genre%" -T "PERFORMER=%albuminterpret%" -T "COMPOSER=%composer%" %haslyrics%--tag-from-file=LYRICS="%lyricsfile%"%haslyrics% -T "ALBUMARTIST=%albumartist%" -T "DISCNUMBER=%cdnumber%" -T "TOTALDISCS=%totalcds%" -T "TOTALTRACKS=%numtracks%" -T "COMMENT=%comment%" %source% -o %dest%
TOC of the extracted CD
Track | Start | Length | Start sector | End sector
---------------------------------------------------------
1 | 0:02.00 | 8:42.40 | 150 | 39339
2 | 8:44.40 | 6:02.16 | 39340 | 66505
3 | 14:46.56 | 7:34.23 | 66506 | 100578
4 | 22:21.04 | 9:39.46 | 100579 | 144049
5 | 32:00.50 | 5:33.00 | 144050 | 169024
6 | 37:33.50 | 8:04.02 | 169025 | 205326
7 | 45:37.52 | 5:50.42 | 205327 | 231618
Track 1
Filename C:\EAC rips\01 - Our Time Is Now.wav
Pre-gap length 0:00:04.00
Peak level 96.6 %
Extraction speed 1.1 X
Track quality 99.9 %
Test CRC CF670C27
Copy CRC CF670C27
Track not present in AccurateRip database
Copy OK
Track 2
Filename C:\EAC rips\02 - Ancestral Song.wav
Pre-gap length 0:00:01.15
Peak level 96.6 %
Extraction speed 1.3 X
Track quality 99.9 %
Test CRC BB95A723
Copy CRC BB95A723
Track not present in AccurateRip database
Copy OK
Track 3
Filename C:\EAC rips\03 - Running in the Streets.wav
Pre-gap length 0:00:02.02
Peak level 96.6 %
Extraction speed 1.6 X
Track quality 100.0 %
Test CRC 4229BC23
Copy CRC 4229BC23
Track not present in AccurateRip database
Copy OK
Track 4
Filename C:\EAC rips\04 - He's Got the Whole World in His Hands.wav
Pre-gap length 0:00:01.74
Peak level 96.6 %
Extraction speed 1.8 X
Track quality 100.0 %
Test CRC C3A53917
Copy CRC C3A53917
Track not present in AccurateRip database
Copy OK
Track 5
Filename C:\EAC rips\05 - Ancestral Song.wav
Pre-gap length 0:00:00.29
Peak level 96.6 %
Extraction speed 1.7 X
Track quality 99.9 %
Test CRC 55D23DDB
Copy CRC 55D23DDB
Track not present in AccurateRip database
Copy OK
Track 6
Filename C:\EAC rips\06 - Our Time Is Now.wav
Pre-gap length 0:00:00.59
Peak level 96.6 %
Extraction speed 1.9 X
Track quality 99.9 %
Test CRC 5674E336
Copy CRC 5674E336
Track not present in AccurateRip database
Copy OK
Track 7
Filename C:\EAC rips\07 - Running in the Streets.wav
Pre-gap length 0:00:01.26
Peak level 96.6 %
Extraction speed 2.1 X
Track quality 100.0 %
Test CRC 6F586C7F
Copy CRC 6F586C7F
Track not present in AccurateRip database
Copy OK
None of the tracks are present in the AccurateRip database
No errors occurred
End of status report
---- CUETools DB Plugin V2.1.4
[CTDB TOCID: 2jofIQQqTN6z2ng3WO3isrlpxJQ-] disk not present in database
Submit result: 2jofIQQqTN6z2ng3WO3isrlpxJQ- has been uploaded
==== Log checksum 2FAC83925DC4ECEEA5A5CC38086481D5B68807F08138300E0D030CBF5C93FAA9 ====
 
Disc 2
Exact Audio Copy V1.0 beta 3 from 29. August 2011
EAC extraction logfile from 8. November 2013, 21:38
Kahil El'Zabar / Deeper Soul Remix Project (Originals CD Two)
Used drive : SlimtypeeNAU508 5 Adapter: 1 ID: 0
Read mode : Secure
Utilize accurate stream : Yes
Defeat audio cache : Yes
Make use of C2 pointers : No
Read offset correction : 6
Overread into Lead-In and Lead-Out : No
Fill up missing offset samples with silence : Yes
Delete leading and trailing silent blocks : No
Null samples used in CRC calculations : Yes
Used interface : Native Win32 interface for Win NT & 2000
Gap handling : Appended to previous track
Used output format : User Defined Encoder
Selected bitrate : 768 kBit/s
Quality : High
Add ID3 tag : No
Command line compressor : C:\Program Files (x86)\Exact Audio Copy\Flac\flac.exe
Additional command line options : -8 -V -T "ARTIST=%artist%" -T "TITLE=%title%" -T "ALBUM=%albumtitle%" -T "DATE=%year%" -T "TRACKNUMBER=%tracknr%" -T "GENRE=%genre%" -T "PERFORMER=%albuminterpret%" -T "COMPOSER=%composer%" %haslyrics%--tag-from-file=LYRICS="%lyricsfile%"%haslyrics% -T "ALBUMARTIST=%albumartist%" -T "DISCNUMBER=%cdnumber%" -T "TOTALDISCS=%totalcds%" -T "TOTALTRACKS=%numtracks%" -T "COMMENT=%comment%" %source% -o %dest%
TOC of the extracted CD
Track | Start | Length | Start sector | End sector
---------------------------------------------------------
1 | 0:02.00 | 5:55.00 | 150 | 26774
2 | 5:57.00 | 10:10.72 | 26775 | 72596
3 | 16:07.72 | 10:04.18 | 72597 | 117914
Track 1
Filename C:\EAC rips\01 - Running in the Streets.wav
Pre-gap length 0:00:04.00
Peak level 96.6 %
Extraction speed 1.1 X
Track quality 100.0 %
Test CRC DACC877B
Copy CRC DACC877B
Track not present in AccurateRip database
Copy OK
Track 2
Filename C:\EAC rips\02 - Ancestral Song.wav
Pre-gap length 0:00:00.22
Peak level 96.6 %
Extraction speed 1.4 X
Track quality 100.0 %
Test CRC 88E418B4
Copy CRC 88E418B4
Track not present in AccurateRip database
Copy OK
Track 3
Filename C:\EAC rips\03 - He's Got the Whole World in His Hands.wav
Pre-gap length 0:00:00.62
Peak level 96.6 %
Extraction speed 1.6 X
Track quality 99.9 %
Test CRC A127A4D4
Copy CRC A127A4D4
Track not present in AccurateRip database
Copy OK
None of the tracks are present in the AccurateRip database
No errors occurred
End of status report
---- CUETools DB Plugin V2.1.4
[CTDB TOCID: Og2TfqCx8sM4Hi3WrTGIb3vsAFg-] disk not present in database
Submit result: Og2TfqCx8sM4Hi3WrTGIb3vsAFg- has been uploaded
==== Log checksum EC633246AAE85E32358628B9D6074D47E101B1C26428D5FACC61BC0583DC2E48 ====
 
Содержание индексной карты (.CUE)
 
Disc 1
REM GENRE Jazz
REM DATE 2006
REM DISCID 650C0E07
REM COMMENT "ExactAudioCopy v1.0b3"
PERFORMER "Kahil El'Zabar"
TITLE "Deeper Soul Remix Project (Remixes CD One)"
FILE "01 - Our Time Is Now.wav" WAVE
TRACK 01 AUDIO
TITLE "Our Time Is Now"
PERFORMER "Kahil El'Zabar & Kemit Sources"
ISRC USBAB0500017
PREGAP 00:02:00
INDEX 01 00:00:00
TRACK 02 AUDIO
TITLE "Ancestral Song"
PERFORMER "Ethnic Heritage Ensemble"
ISRC USBAB0500011
INDEX 00 08:41:25
FILE "02 - Ancestral Song.wav" WAVE
INDEX 01 00:00:00
TRACK 03 AUDIO
TITLE "Running in the Streets"
PERFORMER "Ethnic Heritage Ensemble"
ISRC USBAB0500008
INDEX 00 06:00:14
FILE "03 - Running in the Streets.wav" WAVE
INDEX 01 00:00:00
TRACK 04 AUDIO
TITLE "He's Got the Whole World in His Hands"
PERFORMER "Ethnic Heritage Ensemble"
ISRC USBAB0500019
INDEX 00 07:32:24
FILE "04 - He's Got the Whole World in His Hands.wav" WAVE
INDEX 01 00:00:00
TRACK 05 AUDIO
TITLE "Ancestral Song"
PERFORMER "Ethnic Heritage Ensemble"
ISRC USBAB0500012
INDEX 00 09:39:17
FILE "05 - Ancestral Song.wav" WAVE
INDEX 01 00:00:00
TRACK 06 AUDIO
TITLE "Our Time Is Now"
PERFORMER "Kahil El'Zabar & Kemit Sources"
ISRC USBAB0500018
INDEX 00 05:32:16
FILE "06 - Our Time Is Now.wav" WAVE
INDEX 01 00:00:00
TRACK 07 AUDIO
TITLE "Running in the Streets"
PERFORMER "Ethnic Heritage Ensemble"
ISRC USBAB0500020
INDEX 00 08:02:51
FILE "07 - Running in the Streets.wav" WAVE
INDEX 01 00:00:00
 
Disc 2
REM GENRE Jazz
REM DATE 2006
REM DISCID 2D062203
REM COMMENT "ExactAudioCopy v1.0b3"
PERFORMER "Kahil El'Zabar"
TITLE "Deeper Soul Remix Project (Originals CD Two)"
FILE "01 - Running in the Streets.wav" WAVE
TRACK 01 AUDIO
TITLE "Running in the Streets"
PERFORMER "Ethnic Heritage Ensemble"
ISRC USBAB0500010
PREGAP 00:02:00
INDEX 01 00:00:00
TRACK 02 AUDIO
TITLE "Ancestral Song"
PERFORMER "Ethnic Heritage Ensemble"
ISRC USBAB0500022
INDEX 00 05:54:53
FILE "02 - Ancestral Song.wav" WAVE
INDEX 01 00:00:00
TRACK 03 AUDIO
TITLE "He's Got the Whole World in His Hands"
PERFORMER "Ethnic Heritage Ensemble"
ISRC USBAB0500013
INDEX 00 10:10:10
FILE "03 - He's Got the Whole World in His Hands.wav" WAVE
INDEX 01 00:00:00
 
Состав
Remixes CD One

1. Our Time Is Now
Kahil El’Zabar – Vocals
IG Culture – Vocals
Mark De Clive Lowe – Keys
2. Ancestral Song (El’Zabar)
Kahil El’Zabar – Vocals
3. Running in the Streets (El’Zabar)
Kahil El’Zabar – Vocals
Ernest Dawkins – Saxophone
4. He’s Got the Whole World in His Hand (Trad.)
Kahil El’Zabar – Vocals and Percussion
Dr. Selah Allen – Percussion
5. Ancestral Song (El’Zabar)
Kahil El’Zabaar – Vocals
6. Our Time Is Now
Kahil El’Zabar – Vocals
Kemit Sources – Backing Vocals
7. Running in the Streets (El’Zabar)
Kahil El’Zabar – Vocals and Percussion
Joseph Bowie – Trombone
Ernest Dawkins – Saxophone
Farid Haque – Guitar
Dr. Selah Allen – Percussion

Originals CD Two
1. Running in the Streets (El’Zabar)
Kahil El’Zabar – Vocals and Percussion
Joseph Bowie – Trombone
Ernest Dawkins – Saxophone
Farid Haque – Guitar
Dr. Selah Allen – Percussion
2. Ancestral Song (El’Zabar)
Kahil El’Zabar – Vocals and Percussion
Ernest Dawkins – Saxophone, Percussion
Joseph Bowie – Trombone
« Atu » Harold Murray – Percussion
3. He’s Got the Whole World in His Hands (Trad.)
Kahil El’Zabar – Vocals and Percussion
Dr. Selah Allen – Percussion
По всем вопросам пишите личное сообщение пользователю M0p94ok.
20:19
136
Нет комментариев. Ваш будет первым!