Вы используете незарегистрированную версию компонента "Вкладки"!

Поиск

(free jazz) Sonny Simmons Quartet - Judgment Day 1996, FLAC (tracks+.cue), lossless

(free jazz) Sonny Simmons Quartet - Judgment Day 1996, FLAC (tracks+.cue), lossless
Треклист:


Sonny Simmons Quartet - Judgment Day 1996

Жанр: free jazz
Год выпуска: 1996
Издатель (лейбл):CIMP 118
Формат: FLAC (tracks+.cue)
Битрейт аудио: lossless
Продолжительность 1`10`02
Источник: what.cd, jinx8
Bass – Steve Neil
Drums – Charles Moffett
Saxophone [Manzello, C-melody] – Michael Marcus
Tenor Saxophone – Sonny Simmons

tracks

1 Judgment Day 15:54
2 Monk Mania 10:59
3 Sponge Garden 5:21
4 Waltz For Josette 8:08
5 The Call For Old Sirus 16:34
6 Augmentation 13:08


 
.log
Exact Audio Copy V1.0 beta 3 from 29. August 2011
EAC extraction logfile from 15. December 2011, 17:49
Sonny Simmons Quartet / Judgment Day
Used drive : HL-DT-STDVD-RAM GH15L Adapter: 3 ID: 0
Read mode : Secure
Utilize accurate stream : Yes
Defeat audio cache : Yes
Make use of C2 pointers : No
Read offset correction : 667
Overread into Lead-In and Lead-Out : No
Fill up missing offset samples with silence : Yes
Delete leading and trailing silent blocks : No
Null samples used in CRC calculations : Yes
Used interface : Native Win32 interface for Win NT & 2000
Gap handling : Appended to previous track
Used output format : User Defined Encoder
Selected bitrate : 1024 kBit/s
Quality : High
Add ID3 tag : No
Command line compressor : C:\Programas\Exact Audio Copy\Flac\flac.exe
Additional command line options : -8 -V -T "ARTIST=%artist%" -T "TITLE=%title%" -T "ALBUM=%albumtitle%" -T "DATE=%year%" -T "TRACKNUMBER=%tracknr%" -T "GENRE=%genre%" -T "PERFORMER=%albuminterpret%" -T "COMPOSER=%composer%" %haslyrics%--tag-from-file=LYRICS="%lyricsfile%"%haslyrics% -T "ALBUMARTIST=%albumartist%" -T "DISCNUMBER=%cdnumber%" -T "TOTALDISCS=%totalcds%" -T "TOTALTRACKS=%numtracks%" -T "COMMENT=%comment%" %source% -o %dest%
TOC of the extracted CD
Track | Start | Length | Start sector | End sector
---------------------------------------------------------
1 | 0:01.00 | 15:53.40 | 75 | 71589
2 | 15:54.40 | 10:58.64 | 71590 | 121003
3 | 26:53.29 | 5:20.67 | 121004 | 145070
4 | 32:14.21 | 8:07.36 | 145071 | 181631
5 | 40:21.57 | 16:33.67 | 181632 | 256173
6 | 56:55.49 | 13:07.60 | 256174 | 315258
Track 1
Filename C:\Sonny Simmons - Judgment Day\01 - Judgment Day.wav
Pre-gap length 0:00:03.00
Peak level 100.0 %
Extraction speed 4.8 X
Track quality 100.0 %
Test CRC 5254C43B
Copy CRC 5254C43B
Accurately ripped (confidence 1) [2CCFEE31] (AR v1)
Copy OK
Track 2
Filename C:\Sonny Simmons - Judgment Day\02 - Monk Mania.wav
Pre-gap length 0:00:02.80
Peak level 100.0 %
Extraction speed 5.8 X
Track quality 100.0 %
Test CRC 6DBA3401
Copy CRC 6DBA3401
Accurately ripped (confidence 1) [6830DF9A] (AR v1)
Copy OK
Track 3
Filename C:\Sonny Simmons - Judgment Day\03 - Sponge Garden.wav
Pre-gap length 0:00:02.80
Peak level 19.6 %
Extraction speed 5.9 X
Track quality 100.0 %
Test CRC 750C3A45
Copy CRC 750C3A45
Accurately ripped (confidence 1) [0F94C7C6] (AR v1)
Copy OK
Track 4
Filename C:\Sonny Simmons - Judgment Day\04 - Walz For Josette.wav
Pre-gap length 0:00:02.80
Peak level 80.7 %
Extraction speed 6.7 X
Track quality 100.0 %
Test CRC D2E204E5
Copy CRC D2E204E5
Accurately ripped (confidence 1) [DBF1AFD9] (AR v1)
Copy OK
Track 5
Filename C:\Sonny Simmons - Judgment Day\05 - The Call For Old Sirus.wav
Pre-gap length 0:00:02.80
Peak level 88.6 %
Extraction speed 7.5 X
Track quality 100.0 %
Test CRC B6DDA8BA
Copy CRC B6DDA8BA
Accurately ripped (confidence 1) [4098AF91] (AR v1)
Copy OK
Track 6
Filename C:\Sonny Simmons - Judgment Day\06 - Augmentation.wav
Pre-gap length 0:00:02.80
Peak level 76.1 %
Extraction speed 8.2 X
Track quality 100.0 %
Test CRC 28C2E20D
Copy CRC 28C2E20D
Accurately ripped (confidence 1) [8DFAE1B7] (AR v1)
Copy OK
All tracks accurately ripped
No errors occurred
End of status report
==== Log checksum 53E455B090973C7B4FA4DD91F5B320FD277D8A1F5B20B3EF4E71FB943F835607 ====
 
.cue
REM GENRE Jazz
REM DATE 1996
REM DISCID 51106A06
REM COMMENT "ExactAudioCopy v1.0b3"
CATALOG 0000000000000
PERFORMER "Sonny Simmons Quartet"
TITLE "Judgment Day"
FILE "01 - Judgment Day.wav" WAVE
TRACK 01 AUDIO
TITLE "Judgment Day"
PERFORMER "Sonny Simmons Quartet"
FLAGS DCP
PREGAP 00:01:00
INDEX 01 00:00:00
TRACK 02 AUDIO
TITLE "Monk Mania"
PERFORMER "Sonny Simmons Quartet"
FLAGS DCP
INDEX 00 15:50:55
FILE "02 - Monk Mania.wav" WAVE
INDEX 01 00:00:00
TRACK 03 AUDIO
TITLE "Sponge Garden"
PERFORMER "Sonny Simmons Quartet"
FLAGS DCP
INDEX 00 10:56:04
FILE "03 - Sponge Garden.wav" WAVE
INDEX 01 00:00:00
TRACK 04 AUDIO
TITLE "Walz For Josette"
PERFORMER "Sonny Simmons Quartet"
FLAGS DCP
INDEX 00 05:18:07
FILE "04 - Walz For Josette.wav" WAVE
INDEX 01 00:00:00
TRACK 05 AUDIO
TITLE "The Call For Old Sirus"
PERFORMER "Sonny Simmons Quartet"
FLAGS DCP
INDEX 00 08:04:51
FILE "05 - The Call For Old Sirus.wav" WAVE
INDEX 01 00:00:00
TRACK 06 AUDIO
TITLE "Augmentation"
PERFORMER "Sonny Simmons Quartet"
FLAGS DCP
INDEX 00 16:31:07
FILE "06 - Augmentation.wav" WAVE
INDEX 01 00:00:00
 
.accurip
[CUETools log; Date: 10/11/13 19:35:07; Version: 2.1.4]
Pregap length 00:01:00.
[CTDB TOCID: tu.Du1i6HukPuD0aTXvm3A2mbHs-] disk not present in database.
[AccurateRip ID: 0010a4f5-00579048-51106a06] found.
Track [ CRC | V2 ] Status
01 [2ccfee31|026f0ae9] (1+1/2) Accurately ripped
02 [6830df9a|805422d0] (1+1/2) Accurately ripped
03 [0f94c7c6|e2e051d5] (1+1/2) Accurately ripped
04 [dbf1afd9|67e69e7d] (1+1/2) Accurately ripped
05 [4098af91|de0b6d9e] (1+1/2) Accurately ripped
06 [8dfae1b7|ab33406f] (1+1/2) Accurately ripped
Track Peak [ CRC32 ] [W/O NULL] [ LOG ]
-- 100.0 [27897ACD] [8C7FFB58]
01 100.0 [5254C43B] [9F0DFE24] CRC32
02 100.0 [6DBA3401] [4E2858AB] CRC32
03 19.6 [750C3A45] [8DAEE776] CRC32
04 80.7 [D2E204E5] [1A01298D] CRC32
05 88.6 [B6DDA8BA] [5FEB1D28] CRC32
06 76.1 [28C2E20D] [E5D027AE] CRC32

другие релизы
Any questions -> support@pro-jazz.com. По всем вопросам пишите -> support@pro-jazz.com
20:19
233
Нет комментариев. Ваш будет первым!