Вы используете незарегистрированную версию компонента "Вкладки"!

Поиск

(Free Jazz, Modern Jazz) [CD] David Murray - The Complete Remastered Recordings On Black Saint & Soul Note Vol.2 (7CD box-set) - 2013, FLAC (tracks+.cue), lossless

(Free Jazz, Modern Jazz) [CD] David Murray - The Complete Remastered Recordings On Black Saint & Soul Note Vol.2 (7CD box-set) - 2013, FLAC (tracks+.cue), lossless
Издатель (лейбл):
Треклист:
David Murray / The Complete Remastered Recordings On Black Saint & Soul Note Vol.2 (7CD box-set)
Жанр: Free Jazz, Modern Jazz
Носитель: CD
Страна-производитель диска: Italy
Год издания: 2013
Издатель (лейбл): CAM LONDON Ltd.
Номер по каталогу: BXS 1024
Аудиокодек: FLAC (*.flac)
Тип рипа: tracks+.cue
Битрейт аудио: lossless
Продолжительность: 38:41 + 42:15 + 56:12 + 48:54 + 1:10:41 + 51:53 + 1:09:00
Источник (релизер): gssmg7
Наличие сканов в содержимом раздачи: нет
 
David Murray Trio - Sweet Lovely

Треклист:
1. Coney Island
2. Corazon
3. The Hill
4. Hope / Scope
Release date - Dec 28, 1980
http://www.camjazz.com/8024709045324-sweet-lovely-cd.html
 
Лог создания рипа
Exact Audio Copy V1.0 beta 2 from 29. April 2011
EAC extraction logfile from 1. May 2014, 0:09
David Murray Trio / Sweet Lovely
Used drive : Optiarc DVD RW AD-5280S Adapter: 1 ID: 1
Read mode : Secure
Utilize accurate stream : Yes
Defeat audio cache : Yes
Make use of C2 pointers : No
Read offset correction : 48
Overread into Lead-In and Lead-Out : No
Fill up missing offset samples with silence : Yes
Delete leading and trailing silent blocks : No
Null samples used in CRC calculations : Yes
Used interface : Installed external ASPI interface
Gap handling : Appended to previous track
Used output format : User Defined Encoder
Selected bitrate : 128 kBit/s
Quality : High
Add ID3 tag : No
Command line compressor : C:\Program Files\FLAC\flac.exe
Additional command line options : -V -8 -T "Genre=%genre%" -T "Artist=%artist%" -T "Title=%title%" -T "Album=%albumtitle%" -T "Date=%year%" -T "Tracknumber=%tracknr%" -T "Comment=%comment%" %source%
TOC of the extracted CD
Track | Start | Length | Start sector | End sector
---------------------------------------------------------
1 | 0:00.00 | 9:30.74 | 0 | 42823
2 | 9:30.74 | 8:36.60 | 42824 | 81583
3 | 18:07.59 | 12:33.16 | 81584 | 138074
4 | 30:41.00 | 8:00.60 | 138075 | 174134
Track 1
Filename C:\David Murray Trio - Sweet Lovely\01 - Coney Island.wav
Pre-gap length 0:00:02.00
Peak level 93.9 %
Extraction speed 5.3 X
Track quality 100.0 %
Test CRC 54040A33
Copy CRC 54040A33
Accurately ripped (confidence 1) [F9D0998C] (AR v2)
Copy OK
Track 2
Filename C:\David Murray Trio - Sweet Lovely\02 - Corazon.wav
Pre-gap length 0:00:02.70
Peak level 93.9 %
Extraction speed 6.4 X
Track quality 100.0 %
Test CRC 93C16DB9
Copy CRC 93C16DB9
Accurately ripped (confidence 1) [D54864A1] (AR v2)
Copy OK
Track 3
Filename C:\David Murray Trio - Sweet Lovely\03 - The Hill.wav
Pre-gap length 0:00:05.49
Peak level 93.9 %
Extraction speed 7.6 X
Track quality 100.0 %
Test CRC 3491131B
Copy CRC 3491131B
Accurately ripped (confidence 1) [E2D138BC] (AR v2)
Copy OK
Track 4
Filename C:\David Murray Trio - Sweet Lovely\04 - Hope Scope.wav
Pre-gap length 0:00:03.11
Peak level 93.9 %
Extraction speed 8.2 X
Track quality 100.0 %
Test CRC E0C57289
Copy CRC E0C57289
Accurately ripped (confidence 1) [C111024C] (AR v2)
Copy OK
All tracks accurately ripped
No errors occurred
End of status report
==== Log checksum D0DC17442D29E2F234C3DE95BB12D39FBBF1FF352541941F4B277D806183CBA1 ====
 
Содержание индексной карты (.CUE)
REM GENRE Jazz
REM DATE 2013
REM DISCID 32091104
REM COMMENT "ExactAudioCopy v1.0b2"
PERFORMER "David Murray Trio"
TITLE "Sweet Lovely"
FILE "01 - Coney Island.wav" WAVE
TRACK 01 AUDIO
TITLE "Coney Island"
PERFORMER "David Murray Trio"
ISRC ITBP71358785
FLAGS DCP
INDEX 01 00:00:00
TRACK 02 AUDIO
TITLE "Corazon"
PERFORMER "David Murray Trio"
ISRC ITBP71358786
FLAGS DCP
INDEX 00 09:28:04
FILE "02 - Corazon.wav" WAVE
INDEX 01 00:00:00
TRACK 03 AUDIO
TITLE "The Hill"
PERFORMER "David Murray Trio"
ISRC ITBP71358787
FLAGS DCP
INDEX 00 08:31:11
FILE "03 - The Hill.wav" WAVE
INDEX 01 00:00:00
TRACK 04 AUDIO
TITLE "Hope Scope"
PERFORMER "David Murray Trio"
ISRC ITBP71358788
FLAGS DCP
INDEX 00 12:30:05
FILE "04 - Hope Scope.wav" WAVE
INDEX 01 00:00:00
 
Состав
Steve McCall - drums
David Murray - tenor saxophone, bass clarinet
Fred Hopkins - bass
 
David Murray Quartet - Morning Song

Треклист:
1. Morning Song
2. Body And Soul
3. Light Blue Frolic
4. Jitterbug Waltz
5. Off Season
6. Duet
Release date - Dec 28, 1984
http://www.camjazz.com/8024709048929-morning-song-cd.html
 
Лог создания рипа
Exact Audio Copy V1.0 beta 2 from 29. April 2011
EAC extraction logfile from 1. May 2014, 5:19
David Murray Quartet / Morning Song
Used drive : Optiarc DVD RW AD-5280S Adapter: 1 ID: 1
Read mode : Secure
Utilize accurate stream : Yes
Defeat audio cache : Yes
Make use of C2 pointers : No
Read offset correction : 48
Overread into Lead-In and Lead-Out : No
Fill up missing offset samples with silence : Yes
Delete leading and trailing silent blocks : No
Null samples used in CRC calculations : Yes
Used interface : Installed external ASPI interface
Gap handling : Appended to previous track
Used output format : User Defined Encoder
Selected bitrate : 128 kBit/s
Quality : High
Add ID3 tag : No
Command line compressor : C:\Program Files\FLAC\flac.exe
Additional command line options : -V -8 -T "Genre=%genre%" -T "Artist=%artist%" -T "Title=%title%" -T "Album=%albumtitle%" -T "Date=%year%" -T "Tracknumber=%tracknr%" -T "Comment=%comment%" %source%
TOC of the extracted CD
Track | Start | Length | Start sector | End sector
---------------------------------------------------------
1 | 0:00.00 | 8:08.01 | 0 | 36600
2 | 8:08.01 | 6:53.10 | 36601 | 67585
3 | 15:01.11 | 7:30.14 | 67586 | 101349
4 | 22:31.25 | 6:32.30 | 101350 | 130779
5 | 29:03.55 | 10:56.21 | 130780 | 180000
6 | 40:00.01 | 2:15.01 | 180001 | 190126
Track 1
Filename C:\David Murray Quartet - Morning Song\01 - Morning Song.wav
Pre-gap length 0:00:02.00
Peak level 93.8 %
Extraction speed 4.9 X
Track quality 99.9 %
Test CRC 05939CA1
Copy CRC 05939CA1
Accurately ripped (confidence 1) [EF787F78] (AR v2)
Copy OK
Track 2
Filename C:\David Murray Quartet - Morning Song\02 - Body And Soul.wav
Pre-gap length 0:00:02.24
Peak level 93.8 %
Extraction speed 6.0 X
Track quality 100.0 %
Test CRC 6BCDD1BD
Copy CRC 6BCDD1BD
Accurately ripped (confidence 1) [B12BEFD4] (AR v2)
Copy OK
Track 3
Filename C:\David Murray Quartet - Morning Song\03 - Light Blue Frolic.wav
Pre-gap length 0:00:03.56
Peak level 93.8 %
Extraction speed 6.4 X
Track quality 99.9 %
Test CRC D34C7574
Copy CRC D34C7574
Accurately ripped (confidence 1) [B6DB9B74] (AR v2)
Copy OK
Track 4
Filename C:\David Murray Quartet - Morning Song\04 - Jitterbug Waltz.wav
Pre-gap length 0:00:03.08
Peak level 93.8 %
Extraction speed 6.8 X
Track quality 99.9 %
Test CRC 754A78A4
Copy CRC 754A78A4
Accurately ripped (confidence 1) [EBB26B19] (AR v2)
Copy OK
Track 5
Filename C:\David Murray Quartet - Morning Song\05 - Off Season.wav
Pre-gap length 0:00:03.41
Peak level 93.8 %
Extraction speed 8.4 X
Track quality 100.0 %
Test CRC A8462B76
Copy CRC A8462B76
Accurately ripped (confidence 1) [5A8A51D0] (AR v2)
Copy OK
Track 6
Filename C:\David Murray Quartet - Morning Song\06 - Duet.wav
Pre-gap length 0:00:02.25
Peak level 93.8 %
Extraction speed 7.3 X
Track quality 100.0 %
Test CRC 8619DF02
Copy CRC 8619DF02
Accurately ripped (confidence 1) [FBFB9974] (AR v2)
Copy OK
All tracks accurately ripped
No errors occurred
End of status report
==== Log checksum 4C3FD7A18387C3C9F8C1592FEB1DE9913843C6E44708A8239F9861442065129B ====
 
Содержание индексной карты (.CUE)
REM GENRE Jazz
REM DATE 2013
REM DISCID 4009E706
REM COMMENT "ExactAudioCopy v1.0b2"
PERFORMER "David Murray Quartet"
TITLE "Morning Song"
FILE "01 - Morning Song.wav" WAVE
TRACK 01 AUDIO
TITLE "Morning Song"
PERFORMER "David Murray Quartet"
ISRC ITBP71358789
FLAGS DCP
INDEX 01 00:00:00
TRACK 02 AUDIO
TITLE "Body And Soul"
PERFORMER "David Murray Quartet"
ISRC ITBP71358790
FLAGS DCP
INDEX 00 08:05:52
FILE "02 - Body And Soul.wav" WAVE
INDEX 01 00:00:00
TRACK 03 AUDIO
TITLE "Light Blue Frolic"
PERFORMER "David Murray Quartet"
ISRC ITBP71358791
FLAGS DCP
INDEX 00 06:49:29
FILE "03 - Light Blue Frolic.wav" WAVE
INDEX 01 00:00:00
TRACK 04 AUDIO
TITLE "Jitterbug Waltz"
PERFORMER "David Murray Quartet"
ISRC ITBP71358792
FLAGS DCP
INDEX 00 07:27:06
FILE "04 - Jitterbug Waltz.wav" WAVE
INDEX 01 00:00:00
TRACK 05 AUDIO
TITLE "Off Season"
PERFORMER "David Murray Quartet"
ISRC ITBP71358793
FLAGS DCP
INDEX 00 06:28:64
FILE "05 - Off Season.wav" WAVE
INDEX 01 00:00:00
TRACK 06 AUDIO
TITLE "Duet"
PERFORMER "David Murray Quartet"
ISRC ITBP71358794
FLAGS DCP
INDEX 00 10:53:71
FILE "06 - Duet.wav" WAVE
INDEX 01 00:00:00
 
Состав
John Hicks - piano
Reggie Workman - bass
David Murray - tenor saxophone, bass clarinet
Ed Blackwell - drums
 
David Murray Quartet - I Want To Talk About You

Треклист:
1. Heart To Heart
2. Quads
3. Red Car
4. I Want To Talk About You
5. Morning Song
Release date - Dec 28, 1989
http://www.camjazz.com/8024709051929-i-want-to-talk-about-you-cd.html
 
Лог создания рипа
Exact Audio Copy V1.0 beta 2 from 29. April 2011
EAC extraction logfile from 1. May 2014, 5:59
David Murray Quartet / I Want To Talk About You
Used drive : Optiarc DVD RW AD-5280S Adapter: 1 ID: 1
Read mode : Secure
Utilize accurate stream : Yes
Defeat audio cache : Yes
Make use of C2 pointers : No
Read offset correction : 48
Overread into Lead-In and Lead-Out : No
Fill up missing offset samples with silence : Yes
Delete leading and trailing silent blocks : No
Null samples used in CRC calculations : Yes
Used interface : Installed external ASPI interface
Gap handling : Appended to previous track
Used output format : User Defined Encoder
Selected bitrate : 128 kBit/s
Quality : High
Add ID3 tag : No
Command line compressor : C:\Program Files\FLAC\flac.exe
Additional command line options : -V -8 -T "Genre=%genre%" -T "Artist=%artist%" -T "Title=%title%" -T "Album=%albumtitle%" -T "Date=%year%" -T "Tracknumber=%tracknr%" -T "Comment=%comment%" %source%
TOC of the extracted CD
Track | Start | Length | Start sector | End sector
---------------------------------------------------------
1 | 0:00.00 | 12:48.67 | 0 | 57666
2 | 12:48.67 | 6:57.49 | 57667 | 88990
3 | 19:46.41 | 8:37.17 | 88991 | 127782
4 | 28:23.58 | 13:39.73 | 127783 | 189280
5 | 42:03.56 | 14:09.19 | 189281 | 252974
Track 1
Filename C:\David Murray Quartet - I Want To Talk About You\01 - Heart To Heart.wav
Pre-gap length 0:00:02.00
Peak level 93.9 %
Extraction speed 2.8 X
Track quality 99.9 %
Test CRC 0DC71D7E
Copy CRC 0DC71D7E
Accurately ripped (confidence 1) [3DC08539] (AR v2)
Copy OK
Track 2
Filename C:\David Murray Quartet - I Want To Talk About You\02 - Quads.wav
Pre-gap length 0:00:02.20
Peak level 93.9 %
Extraction speed 3.2 X
Track quality 99.9 %
Test CRC ADC85E66
Copy CRC ADC85E66
Accurately ripped (confidence 1) [76588C70] (AR v2)
Copy OK
Track 3
Filename C:\David Murray Quartet - I Want To Talk About You\03 - Red Car.wav
Pre-gap length 0:00:01.46
Peak level 93.9 %
Extraction speed 3.7 X
Track quality 99.9 %
Test CRC C2D95285
Copy CRC C2D95285
Accurately ripped (confidence 1) [0A75C1C7] (AR v2)
Copy OK
Track 4
Filename C:\David Murray Quartet - I Want To Talk About You\04 - I Want To Talk About You.wav
Pre-gap length 0:00:01.53
Peak level 93.9 %
Extraction speed 4.5 X
Track quality 100.0 %
Test CRC 6FAE7E3A
Copy CRC 6FAE7E3A
Accurately ripped (confidence 1) [CB62644E] (AR v2)
Copy OK
Track 5
Filename C:\David Murray Quartet - I Want To Talk About You\05 - Morning Song.wav
Pre-gap length 0:00:02.20
Peak level 93.9 %
Extraction speed 4.9 X
Track quality 99.9 %
Test CRC 13536650
Copy CRC 13536650
Accurately ripped (confidence 1) [A450D6DC] (AR v2)
Copy OK
All tracks accurately ripped
No errors occurred
End of status report
==== Log checksum 52847F5125BC9FAD40FAA33F27C0CFDB2C652908349868822A318BD99CA0B20F ====
 
Содержание индексной карты (.CUE)
REM GENRE Jazz
REM DATE 2013
REM DISCID 3D0D2D05
REM COMMENT "ExactAudioCopy v1.0b2"
PERFORMER "David Murray Quartet"
TITLE "I Want To Talk About You"
FILE "01 - Heart To Heart.wav" WAVE
TRACK 01 AUDIO
TITLE "Heart To Heart"
PERFORMER "David Murray Quartet"
ISRC ITBP71358795
FLAGS DCP
INDEX 01 00:00:00
TRACK 02 AUDIO
TITLE "Quads"
PERFORMER "David Murray Quartet"
ISRC ITBP71358796
FLAGS DCP
INDEX 00 12:46:47
FILE "02 - Quads.wav" WAVE
INDEX 01 00:00:00
TRACK 03 AUDIO
TITLE "Red Car"
PERFORMER "David Murray Quartet"
ISRC ITBP71358797
FLAGS DCP
INDEX 00 06:56:03
FILE "03 - Red Car.wav" WAVE
INDEX 01 00:00:00
TRACK 04 AUDIO
TITLE "I Want To Talk About You"
PERFORMER "David Murray Quartet"
ISRC ITBP71358798
FLAGS DCP
INDEX 00 08:35:39
FILE "04 - I Want To Talk About You.wav" WAVE
INDEX 01 00:00:00
TRACK 05 AUDIO
TITLE "Morning Song"
PERFORMER "David Murray Quartet"
ISRC ITBP71358799
FLAGS DCP
INDEX 00 13:37:53
FILE "05 - Morning Song.wav" WAVE
INDEX 01 00:00:00
 
Состав
John Hicks - piano
Ralph Peterson - drums
Ray Drummond - bass
David Murray - tenor saxophone, bass clarinet
 
David Murray Trio - The Hill

Треклист:
1. Santa Barbara And Crenshaw Follies
2. The Hill
3. Fling
4. Take The Coltrane
5. Herbie Miller
6. Chelsea Bridge
Release date - Dec 28, 1988
http://www.camjazz.com/8024709052421-the-hill-cd.html
 
Лог создания рипа
Exact Audio Copy V1.0 beta 2 from 29. April 2011
EAC extraction logfile from 1. May 2014, 6:33
David Murray Trio / The Hill
Used drive : Optiarc DVD RW AD-5280S Adapter: 1 ID: 1
Read mode : Secure
Utilize accurate stream : Yes
Defeat audio cache : Yes
Make use of C2 pointers : No
Read offset correction : 48
Overread into Lead-In and Lead-Out : No
Fill up missing offset samples with silence : Yes
Delete leading and trailing silent blocks : No
Null samples used in CRC calculations : Yes
Used interface : Installed external ASPI interface
Gap handling : Appended to previous track
Used output format : User Defined Encoder
Selected bitrate : 128 kBit/s
Quality : High
Add ID3 tag : No
Command line compressor : C:\Program Files\FLAC\flac.exe
Additional command line options : -V -8 -T "Genre=%genre%" -T "Artist=%artist%" -T "Title=%title%" -T "Album=%albumtitle%" -T "Date=%year%" -T "Tracknumber=%tracknr%" -T "Comment=%comment%" %source%
TOC of the extracted CD
Track | Start | Length | Start sector | End sector
---------------------------------------------------------
1 | 0:00.00 | 8:28.26 | 0 | 38125
2 | 8:28.26 | 9:02.63 | 38126 | 78838
3 | 17:31.14 | 7:13.00 | 78839 | 111313
4 | 24:44.14 | 7:45.05 | 111314 | 146193
5 | 32:29.19 | 5:55.05 | 146194 | 172823
6 | 38:24.24 | 10:30.21 | 172824 | 220094
Track 1
Filename C:\David Murray Trio - The Hill\01 - Santa Barbara And Crenshaw Follies.wav
Pre-gap length 0:00:02.00
Peak level 93.9 %
Extraction speed 2.7 X
Track quality 100.0 %
Test CRC 01DD2F47
Copy CRC 01DD2F47
Accurately ripped (confidence 1) [A5F09AD7] (AR v2)
Copy OK
Track 2
Filename C:\David Murray Trio - The Hill\02 - The Hill.wav
Pre-gap length 0:00:03.08
Peak level 93.9 %
Extraction speed 3.1 X
Track quality 99.9 %
Test CRC 81116630
Copy CRC 81116630
Accurately ripped (confidence 1) [24785525] (AR v2)
Copy OK
Track 3
Filename C:\David Murray Trio - The Hill\03 - Fling.wav
Pre-gap length 0:00:02.74
Peak level 93.9 %
Extraction speed 3.7 X
Track quality 100.0 %
Test CRC E2D30212
Copy CRC E2D30212
Accurately ripped (confidence 1) [C970050D] (AR v2)
Copy OK
Track 4
Filename C:\David Murray Trio - The Hill\04 - Take The Coltrane.wav
Pre-gap length 0:00:04.24
Peak level 93.9 %
Extraction speed 4.1 X
Track quality 100.0 %
Test CRC 156ADF86
Copy CRC 156ADF86
Accurately ripped (confidence 1) [D2583FA0] (AR v2)
Copy OK
Track 5
Filename C:\David Murray Trio - The Hill\05 - Herbie Miller.wav
Pre-gap length 0:00:03.53
Peak level 93.9 %
Extraction speed 4.3 X
Track quality 100.0 %
Test CRC 19CDA62C
Copy CRC 19CDA62C
Accurately ripped (confidence 1) [DC253725] (AR v2)
Copy OK
Track 6
Filename C:\David Murray Trio - The Hill\06 - Chelsea Bridge.wav
Pre-gap length 0:00:02.57
Peak level 93.9 %
Extraction speed 4.8 X
Track quality 100.0 %
Test CRC 28874155
Copy CRC 28874155
Accurately ripped (confidence 1) [747DF809] (AR v2)
Copy OK
All tracks accurately ripped
No errors occurred
End of status report
==== Log checksum 7AAD54931632AC4C0614F4A4C68ABFCE9324439F48DBC463EB0555766DF423FA ====
 
Содержание индексной карты (.CUE)
REM GENRE Jazz
REM DATE 2013
REM DISCID 3F0B7606
REM COMMENT "ExactAudioCopy v1.0b2"
PERFORMER "David Murray Trio"
TITLE "The Hill"
FILE "01 - Santa Barbara And Crenshaw Follies.wav" WAVE
TRACK 01 AUDIO
TITLE "Santa Barbara And Crenshaw Follies"
PERFORMER "David Murray Trio"
ISRC ITBP71358811
FLAGS DCP
INDEX 01 00:00:00
TRACK 02 AUDIO
TITLE "The Hill"
PERFORMER "David Murray Trio"
ISRC ITBP71358812
FLAGS DCP
INDEX 00 08:25:18
FILE "02 - The Hill.wav" WAVE
INDEX 01 00:00:00
TRACK 03 AUDIO
TITLE "Fling"
PERFORMER "David Murray Trio"
ISRC ITBP71358813
FLAGS DCP
INDEX 00 08:59:64
FILE "03 - Fling.wav" WAVE
INDEX 01 00:00:00
TRACK 04 AUDIO
TITLE "Take The Coltrane"
PERFORMER "David Murray Trio"
ISRC ITBP71358814
FLAGS DCP
INDEX 00 07:08:51
FILE "04 - Take The Coltrane.wav" WAVE
INDEX 01 00:00:00
TRACK 05 AUDIO
TITLE "Herbie Miller"
PERFORMER "David Murray Trio"
ISRC ITBP71358815
FLAGS DCP
INDEX 00 07:41:27
FILE "05 - Herbie Miller.wav" WAVE
INDEX 01 00:00:00
TRACK 06 AUDIO
TITLE "Chelsea Bridge"
PERFORMER "David Murray Trio"
ISRC ITBP71358816
FLAGS DCP
INDEX 00 05:52:23
FILE "06 - Chelsea Bridge.wav" WAVE
INDEX 01 00:00:00
 
Состав
Joe Chambers - drums, vibes
Richard Davis - bass
David Murray - tenor saxophone, bass clarinet
 
David Murray Quartet - A Sanctuary Within

Треклист:
1. Short And Sweet
2. Mountain Song
3. Return Of The Lost Tribe
4. Waltz To Heaven
5. A Sanctuary Within - Part I (Duo)
6. A Sanctuary Within - Part II (Quartet)
7. Most Of All
8. Song For New South Africa
9. Ballad For The Blackman
Release date - Dec 28, 1992
http://www.camjazz.com/8024709055927-a-sanctuary-within-cd.html
 
Лог создания рипа
Exact Audio Copy V1.0 beta 2 from 29. April 2011
EAC extraction logfile from 1. May 2014, 7:43
David Murray Quartet / A Sanctuary Within
Used drive : Optiarc DVD RW AD-5280S Adapter: 1 ID: 1
Read mode : Secure
Utilize accurate stream : Yes
Defeat audio cache : Yes
Make use of C2 pointers : No
Read offset correction : 48
Overread into Lead-In and Lead-Out : No
Fill up missing offset samples with silence : Yes
Delete leading and trailing silent blocks : No
Null samples used in CRC calculations : Yes
Used interface : Installed external ASPI interface
Gap handling : Appended to previous track
Used output format : User Defined Encoder
Selected bitrate : 128 kBit/s
Quality : High
Add ID3 tag : No
Command line compressor : C:\Program Files\FLAC\flac.exe
Additional command line options : -V -8 -T "Genre=%genre%" -T "Artist=%artist%" -T "Title=%title%" -T "Album=%albumtitle%" -T "Date=%year%" -T "Tracknumber=%tracknr%" -T "Comment=%comment%" %source%
TOC of the extracted CD
Track | Start | Length | Start sector | End sector
---------------------------------------------------------
1 | 0:00.00 | 6:35.02 | 0 | 29626
2 | 6:35.02 | 6:22.39 | 29627 | 58315
3 | 12:57.41 | 10:15.33 | 58316 | 104473
4 | 23:12.74 | 5:33.47 | 104474 | 129495
5 | 28:46.46 | 6:08.50 | 129496 | 157145
6 | 34:55.21 | 8:59.25 | 157146 | 197595
7 | 43:54.46 | 8:54.17 | 197596 | 237662
8 | 52:48.63 | 7:13.39 | 237663 | 270176
9 | 60:02.27 | 10:39.08 | 270177 | 318109
Track 1
Filename C:\David Murray Quartet - A Sanctuary Within\01 - Short And Sweet.wav
Pre-gap length 0:00:02.00
Peak level 93.9 %
Extraction speed 5.1 X
Track quality 100.0 %
Test CRC ADAF919E
Copy CRC ADAF919E
Accurately ripped (confidence 1) [414FA528] (AR v2)
Copy OK
Track 2
Filename C:\David Murray Quartet - A Sanctuary Within\02 - Mountain Song.wav
Pre-gap length 0:00:02.55
Peak level 93.9 %
Extraction speed 5.8 X
Track quality 100.0 %
Test CRC 394500E9
Copy CRC 394500E9
Accurately ripped (confidence 1) [84C0CE5D] (AR v2)
Copy OK
Track 3
Filename C:\David Murray Quartet - A Sanctuary Within\03 - Return Of The Lost Tribe.wav
Pre-gap length 0:00:02.63
Peak level 93.9 %
Extraction speed 6.9 X
Track quality 100.0 %
Test CRC 7DF23FED
Copy CRC 7DF23FED
Accurately ripped (confidence 1) [04D20F22] (AR v2)
Copy OK
Track 4
Filename C:\David Murray Quartet - A Sanctuary Within\04 - Waltz To Heaven.wav
Pre-gap length 0:00:04.60
Peak level 93.9 %
Extraction speed 6.6 X
Track quality 99.9 %
Test CRC 95B6FF70
Copy CRC 95B6FF70
Accurately ripped (confidence 1) [E1F9186F] (AR v2)
Copy OK
Track 5
Filename C:\David Murray Quartet - A Sanctuary Within\05 - A Sanctuary Within - Part I (Duo).wav
Pre-gap length 0:00:03.22
Peak level 93.9 %
Extraction speed 7.8 X
Track quality 100.0 %
Test CRC 2539318F
Copy CRC 2539318F
Accurately ripped (confidence 1) [FCF5A7C1] (AR v2)
Copy OK
Track 6
Filename C:\David Murray Quartet - A Sanctuary Within\06 - A Sanctuary Within - Part Ii (Quartet).wav
Pre-gap length 0:00:03.53
Peak level 93.9 %
Extraction speed 8.6 X
Track quality 100.0 %
Test CRC 4F32FCDD
Copy CRC 4F32FCDD
Accurately ripped (confidence 1) [A737E0ED] (AR v2)
Copy OK
Track 7
Filename C:\David Murray Quartet - A Sanctuary Within\07 - Most Of All.wav
Pre-gap length 0:00:02.35
Peak level 93.9 %
Extraction speed 9.2 X
Track quality 100.0 %
Test CRC D553400C
Copy CRC D553400C
Accurately ripped (confidence 1) [E5880696] (AR v2)
Copy OK
Track 8
Filename C:\David Murray Quartet - A Sanctuary Within\08 - Song For New South Africa.wav
Pre-gap length 0:00:02.24
Peak level 93.9 %
Extraction speed 9.5 X
Track quality 100.0 %
Test CRC FC26EAFF
Copy CRC FC26EAFF
Accurately ripped (confidence 1) [B0296937] (AR v2)
Copy OK
Track 9
Filename C:\David Murray Quartet - A Sanctuary Within\09 - Ballad For The Blackman.wav
Pre-gap length 0:00:03.12
Peak level 93.9 %
Extraction speed 9.4 X
Track quality 99.9 %
Test CRC 6116A6EC
Copy CRC 6116A6EC
Accurately ripped (confidence 1) [97C3A9F6] (AR v2)
Copy OK
All tracks accurately ripped
No errors occurred
End of status report
==== Log checksum 6A0FE5044DC1DBC19ECDB02829C8D7D1FA69B515ABFFE0CFAD1DC86480BE838E ====
 
Содержание индексной карты (.CUE)
REM GENRE Jazz
REM DATE 2013
REM DISCID 8A109109
REM COMMENT "ExactAudioCopy v1.0b2"
PERFORMER "David Murray Quartet"
TITLE "A Sanctuary Within"
FILE "01 - Short And Sweet.wav" WAVE
TRACK 01 AUDIO
TITLE "Short And Sweet"
PERFORMER "David Murray Quartet"
ISRC ITBP71358879
FLAGS DCP
INDEX 01 00:00:00
TRACK 02 AUDIO
TITLE "Mountain Song"
PERFORMER "David Murray Quartet"
ISRC ITBP71358880
FLAGS DCP
INDEX 00 06:32:22
FILE "02 - Mountain Song.wav" WAVE
INDEX 01 00:00:00
TRACK 03 AUDIO
TITLE "Return Of The Lost Tribe"
PERFORMER "David Murray Quartet"
ISRC ITBP71358881
FLAGS DCP
INDEX 00 06:19:51
FILE "03 - Return Of The Lost Tribe.wav" WAVE
INDEX 01 00:00:00
TRACK 04 AUDIO
TITLE "Waltz To Heaven"
PERFORMER "David Murray Quartet"
ISRC ITBP71358882
FLAGS DCP
INDEX 00 10:10:48
FILE "04 - Waltz To Heaven.wav" WAVE
INDEX 01 00:00:00
TRACK 05 AUDIO
TITLE "A Sanctuary Within - Part I (Duo)"
PERFORMER "David Murray Quartet"
ISRC ITBP71358883
FLAGS DCP
INDEX 00 05:30:25
FILE "05 - A Sanctuary Within - Part I (Duo).wav" WAVE
INDEX 01 00:00:00
TRACK 06 AUDIO
TITLE "A Sanctuary Within - Part Ii (Quartet)"
PERFORMER "David Murray Quartet"
ISRC ITBP71358884
FLAGS DCP
INDEX 00 06:04:72
FILE "06 - A Sanctuary Within - Part Ii (Quartet).wav" WAVE
INDEX 01 00:00:00
TRACK 07 AUDIO
TITLE "Most Of All"
PERFORMER "David Murray Quartet"
ISRC ITBP71358885
FLAGS DCP
INDEX 00 08:56:65
FILE "07 - Most Of All.wav" WAVE
INDEX 01 00:00:00
TRACK 08 AUDIO
TITLE "Song For New South Africa"
PERFORMER "David Murray Quartet"
ISRC ITBP71358886
FLAGS DCP
INDEX 00 08:51:68
FILE "08 - Song For New South Africa.wav" WAVE
INDEX 01 00:00:00
TRACK 09 AUDIO
TITLE "Ballad For The Blackman"
PERFORMER "David Murray Quartet"
ISRC ITBP71358887
FLAGS DCP
INDEX 00 07:10:27
FILE "09 - Ballad For The Blackman.wav" WAVE
INDEX 01 00:00:00
 
Состав
Kahil El' Zabar - percussion, sanza, voice
Sunny Murray - drums
Tony Overwater - bass
David Murray - tenor saxophone, bass clarinet
 
David Murray Quartet - Body And Soul

Треклист:
1. Slave Song
2. Celebration Dance
3. Body And Soul
4. Doni's Song
5. Remembering The Chief Of St. Mary's (for Bob Barrett)
6. Odin
7. Cuttin's Corners
Release date - Dec 28, 1993
http://www.camjazz.com/8024709056924-body-and-soul-cd.html
 
Лог создания рипа
Exact Audio Copy V1.0 beta 2 from 29. April 2011
EAC extraction logfile from 1. May 2014, 8:25
David Murray Quartet / Body And Soul
Used drive : Optiarc DVD RW AD-5280S Adapter: 1 ID: 1
Read mode : Secure
Utilize accurate stream : Yes
Defeat audio cache : Yes
Make use of C2 pointers : No
Read offset correction : 48
Overread into Lead-In and Lead-Out : No
Fill up missing offset samples with silence : Yes
Delete leading and trailing silent blocks : No
Null samples used in CRC calculations : Yes
Used interface : Installed external ASPI interface
Gap handling : Appended to previous track
Used output format : User Defined Encoder
Selected bitrate : 128 kBit/s
Quality : High
Add ID3 tag : No
Command line compressor : C:\Program Files\FLAC\flac.exe
Additional command line options : -V -8 -T "Genre=%genre%" -T "Artist=%artist%" -T "Title=%title%" -T "Album=%albumtitle%" -T "Date=%year%" -T "Tracknumber=%tracknr%" -T "Comment=%comment%" %source%
TOC of the extracted CD
Track | Start | Length | Start sector | End sector
---------------------------------------------------------
1 | 0:00.00 | 10:13.43 | 0 | 46017
2 | 10:13.43 | 4:55.71 | 46018 | 68213
3 | 15:09.39 | 7:29.69 | 68214 | 101957
4 | 22:39.33 | 7:00.30 | 101958 | 133487
5 | 29:39.63 | 6:55.21 | 133488 | 164633
6 | 36:35.09 | 8:14.73 | 164634 | 201756
7 | 44:50.07 | 7:03.03 | 201757 | 233484
Track 1
Filename C:\David Murray Quartet - Body And Soul\01 - Slave Song.wav
Pre-gap length 0:00:02.00
Peak level 93.9 %
Extraction speed 2.8 X
Track quality 100.0 %
Test CRC 706EAAC0
Copy CRC 706EAAC0
Accurately ripped (confidence 1) [F66EDEB0] (AR v2)
Copy OK
Track 2
Filename C:\David Murray Quartet - Body And Soul\02 - Celebration Dance.wav
Pre-gap length 0:00:02.05
Peak level 93.9 %
Extraction speed 3.1 X
Track quality 100.0 %
Test CRC E4F92BC2
Copy CRC E4F92BC2
Accurately ripped (confidence 1) [EFA7E6BF] (AR v2)
Copy OK
Track 3
Filename C:\David Murray Quartet - Body And Soul\03 - Body And Soul.wav
Pre-gap length 0:00:02.39
Peak level 93.9 %
Extraction speed 3.6 X
Track quality 100.0 %
Test CRC 62368F7A
Copy CRC 62368F7A
Accurately ripped (confidence 1) [85B0FEE1] (AR v2)
Copy OK
Track 4
Filename C:\David Murray Quartet - Body And Soul\04 - Doni's Song.wav
Pre-gap length 0:00:03.44
Peak level 93.9 %
Extraction speed 3.9 X
Track quality 100.0 %
Test CRC 59EA9B96
Copy CRC 59EA9B96
Accurately ripped (confidence 1) [854095A4] (AR v2)
Copy OK
Track 5
Filename C:\David Murray Quartet - Body And Soul\05 - Remembering The Chief Of St. Mary's (For Bob Barrett).wav
Pre-gap length 0:00:02.46
Peak level 93.9 %
Extraction speed 4.3 X
Track quality 100.0 %
Test CRC EBED9211
Copy CRC EBED9211
Accurately ripped (confidence 1) [8B73CDCD] (AR v2)
Copy OK
Track 6
Filename C:\David Murray Quartet - Body And Soul\06 - Odin.wav
Pre-gap length 0:00:05.24
Peak level 93.9 %
Extraction speed 4.3 X
Track quality 99.9 %
Test CRC AB9AEC2A
Copy CRC AB9AEC2A
Accurately ripped (confidence 1) [BABE9367] (AR v2)
Copy OK
Track 7
Filename C:\David Murray Quartet - Body And Soul\07 - Cuttin' Corners.wav
Pre-gap length 0:00:03.63
Peak level 93.9 %
Extraction speed 4.9 X
Track quality 100.0 %
Test CRC D5A96330
Copy CRC D5A96330
Accurately ripped (confidence 1) [6131D2D7] (AR v2)
Copy OK
All tracks accurately ripped
No errors occurred
End of status report
==== Log checksum 4834A5FA3E8D3FE9A453AF0C6811D874E367A08D6F2D998108AC8B423DEB7E49 ====
 
Содержание индексной карты (.CUE)
REM GENRE Jazz
REM DATE 2013
REM DISCID 5B0C2907
REM COMMENT "ExactAudioCopy v1.0b2"
PERFORMER "David Murray Quartet"
TITLE "Body And Soul"
FILE "01 - Slave Song.wav" WAVE
TRACK 01 AUDIO
TITLE "Slave Song"
PERFORMER "David Murray Quartet"
ISRC ITBP71358888
FLAGS DCP
INDEX 01 00:00:00
TRACK 02 AUDIO
TITLE "Celebration Dance"
PERFORMER "David Murray Quartet"
ISRC ITBP71358889
FLAGS DCP
INDEX 00 10:11:38
FILE "02 - Celebration Dance.wav" WAVE
INDEX 01 00:00:00
TRACK 03 AUDIO
TITLE "Body And Soul"
PERFORMER "David Murray Quartet"
ISRC ITBP71358890
FLAGS DCP
INDEX 00 04:53:32
FILE "03 - Body And Soul.wav" WAVE
INDEX 01 00:00:00
TRACK 04 AUDIO
TITLE "Doni's Song"
PERFORMER "David Murray Quartet"
ISRC ITBP71358891
FLAGS DCP
INDEX 00 07:26:25
FILE "04 - Doni's Song.wav" WAVE
INDEX 01 00:00:00
TRACK 05 AUDIO
TITLE "Remembering The Chief Of St. Mary's (For Bob Barrett)"
PERFORMER "David Murray Quartet"
ISRC ITBP71358892
FLAGS DCP
INDEX 00 06:57:59
FILE "05 - Remembering The Chief Of St. Mary's (For Bob Barrett).wav" WAVE
INDEX 01 00:00:00
TRACK 06 AUDIO
TITLE "Odin"
PERFORMER "David Murray Quartet"
ISRC ITBP71358893
FLAGS DCP
INDEX 00 06:49:72
FILE "06 - Odin.wav" WAVE
INDEX 01 00:00:00
TRACK 07 AUDIO
TITLE "Cuttin' Corners"
PERFORMER "David Murray Quartet"
ISRC ITBP71358894
FLAGS DCP
INDEX 00 08:11:10
FILE "07 - Cuttin' Corners.wav" WAVE
INDEX 01 00:00:00
 
Состав
Rashied Alì - drums
Sonelius Smith - piano
Taana Running - vocal
David Murray - tenor saxophone, bass clarinet
Wilber Morris - bass
 
David Murray With Dave Burrell - Windward Passages

Треклист:
1. Sorrow Song (for W. E. B. Dubois)
2. It Hurts So Much To See
3. Naima (Take 2)
4. Cela Me Va
5. The Crave
6. Zanzibar Blue
7. Conversation With Our Mothers
8. Naima (Take 1)
Release date - Dec 28, 1997
http://www.camjazz.com/8024709057921-windward-passages-cd.html
 
Лог создания рипа
Exact Audio Copy V1.0 beta 2 from 29. April 2011
EAC extraction logfile from 4. May 2014, 20:57
David Murray With Dave Burrell / Windward Passages
Used drive : Optiarc DVD RW AD-5280S Adapter: 1 ID: 1
Read mode : Secure
Utilize accurate stream : Yes
Defeat audio cache : Yes
Make use of C2 pointers : No
Read offset correction : 48
Overread into Lead-In and Lead-Out : No
Fill up missing offset samples with silence : Yes
Delete leading and trailing silent blocks : No
Null samples used in CRC calculations : Yes
Used interface : Installed external ASPI interface
Gap handling : Appended to previous track
Used output format : User Defined Encoder
Selected bitrate : 128 kBit/s
Quality : High
Add ID3 tag : No
Command line compressor : C:\Program Files\FLAC\flac.exe
Additional command line options : -V -8 -T "Genre=%genre%" -T "Artist=%artist%" -T "Title=%title%" -T "Album=%albumtitle%" -T "Date=%year%" -T "Tracknumber=%tracknr%" -T "Comment=%comment%" %source%
TOC of the extracted CD
Track | Start | Length | Start sector | End sector
---------------------------------------------------------
1 | 0:00.00 | 8:27.67 | 0 | 38091
2 | 8:27.67 | 8:00.05 | 38092 | 74096
3 | 16:27.72 | 11:33.31 | 74097 | 126102
4 | 28:01.28 | 5:25.66 | 126103 | 150543
5 | 33:27.19 | 6:05.02 | 150544 | 177920
6 | 39:32.21 | 9:21.51 | 177921 | 220046
7 | 48:53.72 | 6:09.37 | 220047 | 247758
8 | 55:03.34 | 13:57.36 | 247759 | 310569
Track 1
Filename C:\David Murray With Dave Burrell - Windward Passages\01 - Sorrow Song (For W.E.B. Dubois).wav
Pre-gap length 0:00:02.00
Peak level 93.9 %
Extraction speed 5.2 X
Track quality 100.0 %
Test CRC 8B1EECB4
Copy CRC 8B1EECB4
Accurately ripped (confidence 2) [A4149FC4] (AR v2)
Copy OK
Track 2
Filename C:\David Murray With Dave Burrell - Windward Passages\02 - It Hurts So Much To See.wav
Pre-gap length 0:00:02.61
Peak level 93.9 %
Extraction speed 5.8 X
Track quality 99.9 %
Test CRC 140D5270
Copy CRC 140D5270
Accurately ripped (confidence 2) [35AFE60C] (AR v2)
Copy OK
Track 3
Filename C:\David Murray With Dave Burrell - Windward Passages\03 - Naima (Take 2).wav
Pre-gap length 0:00:02.71
Peak level 93.9 %
Extraction speed 7.2 X
Track quality 100.0 %
Test CRC 61D71FBD
Copy CRC 61D71FBD
Accurately ripped (confidence 2) [43ED651D] (AR v2)
Copy OK
Track 4
Filename C:\David Murray With Dave Burrell - Windward Passages\04 - Cela Me Va.wav
Pre-gap length 0:00:02.30
Peak level 93.9 %
Extraction speed 7.5 X
Track quality 100.0 %
Test CRC B9F92818
Copy CRC B9F92818
Accurately ripped (confidence 2) [0BE461F4] (AR v2)
Copy OK
Track 5
Filename C:\David Murray With Dave Burrell - Windward Passages\05 - The Crave.wav
Pre-gap length 0:00:03.28
Peak level 93.9 %
Extraction speed 8.1 X
Track quality 100.0 %
Test CRC 496641E9
Copy CRC 496641E9
Accurately ripped (confidence 2) [C86510D8] (AR v2)
Copy OK
Track 6
Filename C:\David Murray With Dave Burrell - Windward Passages\06 - Zanzibar Blue.wav
Pre-gap length 0:00:01.55
Peak level 93.9 %
Extraction speed 8.9 X
Track quality 100.0 %
Test CRC 1C6F1C5C
Copy CRC 1C6F1C5C
Accurately ripped (confidence 2) [7FA1B0D9] (AR v2)
Copy OK
Track 7
Filename C:\David Murray With Dave Burrell - Windward Passages\07 - Conversation With Our Mothers.wav
Pre-gap length 0:00:03.16
Peak level 93.9 %
Extraction speed 8.4 X
Track quality 99.9 %
Test CRC 82B1FE58
Copy CRC 82B1FE58
Accurately ripped (confidence 2) [C472DBBE] (AR v2)
Copy OK
Track 8
Filename C:\David Murray With Dave Burrell - Windward Passages\08 - Naima (Take 1).wav
Pre-gap length 0:00:02.00
Peak level 93.9 %
Extraction speed 10.2 X
Track quality 100.0 %
Test CRC 390A88F5
Copy CRC 390A88F5
Accurately ripped (confidence 2) [CF3CC7F8] (AR v2)
Copy OK
All tracks accurately ripped
No errors occurred
End of status report
==== Log checksum CDEA46B4D09D4816962979F00A462D7D45AB7147C8F4C9E92C5F7D384D4CFA0B ====
 
Содержание индексной карты (.CUE)
REM GENRE Jazz
REM DATE 2013
REM DISCID 75102C08
REM COMMENT "ExactAudioCopy v1.0b2"
PERFORMER "David Murray With Dave Burrell"
TITLE "Windward Passages"
FILE "01 - Sorrow Song (For W.E.B. Dubois).wav" WAVE
TRACK 01 AUDIO
TITLE "Sorrow Song (For W.E.B. Dubois)"
PERFORMER "David Murray With Dave Burrell"
ISRC ITBP71358854
FLAGS DCP
INDEX 01 00:00:00
TRACK 02 AUDIO
TITLE "It Hurts So Much To See"
PERFORMER "David Murray With Dave Burrell"
ISRC ITBP71358855
FLAGS DCP
INDEX 00 08:25:06
FILE "02 - It Hurts So Much To See.wav" WAVE
INDEX 01 00:00:00
TRACK 03 AUDIO
TITLE "Naima (Take 2)"
PERFORMER "David Murray With Dave Burrell"
ISRC ITBP71358856
FLAGS DCP
INDEX 00 07:57:09
FILE "03 - Naima (Take 2).wav" WAVE
INDEX 01 00:00:00
TRACK 04 AUDIO
TITLE "Cela Me Va"
PERFORMER "David Murray With Dave Burrell"
ISRC ITBP71358857
FLAGS DCP
INDEX 00 11:31:01
FILE "04 - Cela Me Va.wav" WAVE
INDEX 01 00:00:00
TRACK 05 AUDIO
TITLE "The Crave"
PERFORMER "David Murray With Dave Burrell"
ISRC ITBP71358858
FLAGS DCP
INDEX 00 05:22:38
FILE "05 - The Crave.wav" WAVE
INDEX 01 00:00:00
TRACK 06 AUDIO
TITLE "Zanzibar Blue"
PERFORMER "David Murray With Dave Burrell"
ISRC ITBP71358859
FLAGS DCP
INDEX 00 06:03:22
FILE "06 - Zanzibar Blue.wav" WAVE
INDEX 01 00:00:00
TRACK 07 AUDIO
TITLE "Conversation With Our Mothers"
PERFORMER "David Murray With Dave Burrell"
ISRC ITBP71358860
FLAGS DCP
INDEX 00 09:18:35
FILE "07 - Conversation With Our Mothers.wav" WAVE
INDEX 01 00:00:00
TRACK 08 AUDIO
TITLE "Naima (Take 1)"
PERFORMER "David Murray With Dave Burrell"
ISRC ITBP71358862
FLAGS DCP
INDEX 00 06:07:37
FILE "08 - Naima (Take 1).wav" WAVE
INDEX 01 00:00:00
 
Состав
Monika Larsson - voice
David Murray - tenor saxophone, bass clarinet
Dave Burrell - piano, voice
 
Доп. информация
THE COMPLETE REMASTERED RECORDINGS ON BLACK SAINT & SOUL NOTE is a monographic box-set collection aimed at recounting the most beautiful chapters that revolutionised the history of jazz. This new series was launched in March 2010 with the simultaneous release of four box-sets, including albums by some of the artists who participated in the success of the outstanding labels. A philological work, beginning with the original recordings on multi-track master tapes, patiently integrally remastered paying strict attention to the sound quality.
 
Об исполнителе (группе)
This seven-disc set in CAM Jazz's Black Saint/Soul Note reissue series (capturing inspired work by African-American jazz avantists finding refuge in Europe in the 1970s and 80s) frequently presents Murray in creative tension with very powerful partners, however – including bassists Fred Hopkins and Reggie Workman, and percussion originals Ed Blackwell, Sunny Murray, and John Coltrane drummer Rashied Ali. However, The Sweet Lonely album of 1979 offers Murray one of his most uncluttered improv spaces (in a trio with Hopkins and drummer Steve McCall, in which the saxist swings with left-field lyricism over Hopkins' stomping walks). There's a beautiful Body and Soul paying devoted tribute to Coleman Hawkins and the brilliantly supportive pianist John Hicks on Morning Song, and a playful bass clarinet account of Jitterbug Waltz which highlights Murray's seismic 1980s shift from free-improv to his own robust take on postbop. Sometimes he sounds like the consummate 1930s swing balladeer (on the title track of I Want to Talk About You); elsewhere he's a gospel blues-blaster. For those intrigued by Murray today, it's an invaluable study of the routes he took to get here. ~ john fordham, theguardian.com, 7 november 2013
This second set of albums by saxophonist David Murray on Black Saint is highly welcome. While the Octets, collected on the first volume, are considered by some to be the peak of his career, they have only ever been a tiny proportion of his total output (I count 7 albums, out of more than 150!) so it's great to have easy access to some of his other 1980s music once more. One of the problems with David Murray is that the majority of his discography is out of print, and thus expensive even when you can find discs - mainly because he recorded on smaller labels, but also because the sheer number of his records must make it difficult to decide what to reissue. With that mind, getting 7 albums for £20 is a real bargain! These cover the period 1979-1993 and feature Murray in quartet, trio (w/bass & drums) and duo (w/piano) settings. Individual albums vary but I'd say that on the whole this is more accessible music than on the Octets, and Murray himself gets more space (inevitably), making it perhaps a better place to start than the first set (even though the octets are, of course, essential). Each album is different and will appeal to different kinds of listeners. "Body & Soul" features the title-track, which all tenor saxophonists in jazz seem destined to record eventually - and while this is a great contribution to that tradition, the earlier version on "Morning Song" is if anything even better - more adventurous and lacking the rather lacklustre lyric. There's a bit of repetition of tunes across these discs, which I consider a good thing - it's nice to see how a musician, especially in jazz, re-treats the same material at different points in its career. My favourite of these albums at the moment is Morning Song - but they're all good, and it's such a welcome to have these easily available that it's impossible not to grant this the full five stars. ~ falstaff, amazon.co.uk, 14 november 2013
 
Об альбоме (сборнике)
Murray's first box set in this series was one of Black Saint/Soul Note's better reissues. And this second volume is it's equal, and in some instances possibly better. The seven albums here span the years 1979 to 1993, and show Murray in different playing styles, but always close to the top of his skills. If you've read this far you're probably familiar with Murray's music, so I'll be brief in my album notes.
"Sweet Lovely", (1979) is an early trio set, with Fred Hopkins-bass, and Steve McCall-drums (both from the great trio Air with Henry Threadgill), and it's a pretty fine set of jazz. "Coney Island", "The Hill", and "Hope/Scope" are all very fine, each with their own sound and mood, but it's difficult to pick high points. These tunes, all played with some intensity, benefit from Hopkins' deep bass sound, and the ever inventive McCall's drum patterns. This album needs to be listened to at one sitting, and then digested--there's a lot going on. All the tunes are by Murray.
"Morning Star", (1983) is a quartet including Murray, the fine John Hicks on piano, and a dream rhythm section of Reggie Workman-bass, and Ed Blackwell-drums. Another fine album. Listen to "Body And Soul" or "Jitterbug Waltz" (among others) and you'll wish this band had recorded more music together. Hicks (a personal favorite) is a fine player alongside Murray. And listen to Blackwell's time keeping yes. Another fine album.
"I Want To Talk About You", (1986) is a live set with Murray, Hicks, Ray Drummond-bass, and Ralph Peterson, Jr.-drums. Here Murray blends both earlier playing styles with later styles the result some pretty hot playing. One listen to "Heart To Heart" and the title track will clue you in about this very good live set.
"The Hill", (1986) is yet another fine set, this time featuring Murray in a trio setting with Richard Davis-bass, and Joe Chambers-drums. Murray is also heard here playing his bass clarinet to good effect. Compositions like the title track, and "Take The Coltrane" show how good this trio was intelligent playing and arranging to maximum effect. Murray almost always seemed to know instinctively who to choose for his trios for some good sounding jazz. This is one of the better albums in this volume--but it's a close call.
"A Sanctuary Within", (1991) sounds like it came from Murray's earlier "outside" period. This is a trio with the great Sunny Murray-drums (hear his work on the ESP label from the 60's and with Albert Ayler), and Kahil El' Zabar-percussion and vocals. While there's some good playing from Murray and drummer Murray, with Zabar occasionally adding something of interest, he doesn't seem to really fit in with the other two players--not quite in step with what they're doing. A lesser album but still containing good music in spots.
"Body And Soul", (1993) finds Murray once again playing closer to the top of his skills. A quartet of Murray, Sonelius Smith-piano, Wilber Morris-bass, and the fine drummer Rashied Ali. There's a vocalist here also, Taana Running. Even though some of these musicians are relatively unknown (at least to me), this is a good band, with Murray looking slightly backwards (again) to earlier jazz styles. Listen to "Body And Soul" for an example of his thinking just don't expect a Ben Webster-like sound at this late date. But overall the band is a good one and gets down to playing some good jazz.
"Windward Passages", (1993) is another trio with Murray (once again playing his bass clarinet), the fine pianist Dave Burrell (also on vocals), and Monika Larsson-voice. Don't let the players (especially Burrell) deceive you. This is pretty close to a duet set at times between Murray and Burrell. You'll hear a number of different influences here (especially from Burrell) that gives the music a different feel. Larsson (at least to my ears) is fairly expendable here. I can't help but wonder how this set would've sounded as a true duet. The two takes of Coltrane's "Naima", "The Cave", and "It Hurts So Much To See" have some good interplay with little in the way of fluff. You may feel differently. But Murray and Burrell are the obvious stars here.
The packaging is similar to all the others in this series. A substantial lidded box, with each disc inside a reproduction of the original vinyl album cover. But be warned some of the notes on the backside are so small as to be unreadable. But all in all the packaging is pretty good. But I still wish a booklet that gives some overall context to the music would be helpful. But the music is what's important and on that point this set delivers.
For fans of either/and Murray/post-bop/post-modern jazz, this is another good collection of music. Hopefully you've heard Murray's first collection in this series, featuring his octet groups. He can also be heard to great effect on another box set in this series as a member of the World Saxophone Quartet. Much of that band's great music is included in that set. Murray, as a college student, "...decided to align myself with the avant-garde...That was also the point when I really began hearing things in a new way." But Murray was also influenced by older tenor players like Ben Webster that leavened some of his outside playing style.
His tenor sax playing has that sharp, precise sound, and when combined with a slightly rougher sound he sometimes used, gave his tone a depth and accuracy other players didn't have. And when you add in his composing and arranging skills, Murray can combine avant-garde playing with earlier styles into music that's both intelligent and has the ability to swing. His music has an impact that stays with you. Another reason to check out this (and his octet recordings) set.
~ stuart jefferson, amazon.co.uk, 11 december 2013
По всем вопросам пишите личное сообщение пользователю M0p94ok.
01:45
274
Нет комментариев. Ваш будет первым!