Вы используете незарегистрированную версию компонента "Вкладки"!

Поиск

(avant-garde, post-bop) [cd] Kenny Wheeler - Dream Sequence 2003, FLAC (tracks+.cue), lossless

(avant-garde, post-bop) [cd] Kenny Wheeler - Dream Sequence 2003, FLAC (tracks+.cue), lossless
Треклист:


Kenny Wheeler - Dream Sequence 2003

Жанр: avant-garde, post-bop
Год выпуска: 2003
Издатель (лейбл):Psi / psi 03.04
Формат: FLAC (tracks+.cue)
Битрейт аудио: lossless
Продолжительность 01:06:29
Источник: what.cd, lizardhands
Ray Warleigh: alto saxophone, flute
Stan Sulzmann: tenor saxophone
Tony Levin: drums
Kenny Wheeler: flugelhorn
John Parricelli: guitar
Chris Laurence: bass
Recordings from 1995-2003, at Gateway Studios, London, UK.

tracks
1 Unti 13:45
2 Drum Sequence 6:29
3 Dream Sequence 5:11
4 Cousin Marie 9:35
5 Nonetheless 7:05
6 A Flower Is A Lovesome Thing 7:46
7 Hearken 4:52
8 Kind Folks 11:46


 
.log
X Lossless Decoder version 20080926 (93.3)
XLD extraction logfile from 2008-12-27 18:07:18 +0000
Kenny Wheeler / Dream Sequence
Used drive : MATSHITA DVD-R UJ-835E (revision GAND)
Use cdparanoia mode : YES (CDParanoia III 10.2 engine)
Disable audio cache : OK for the drive with cache less than 2750KB
Make use of C2 pointers : NO
Read offset correction : 102
Max retry count : 100
TOC of the extracted CD
Track | Start | Length | Start sector | End sector
---------------------------------------------------------
1 | 00:00:00 | 13:45:00 | 0 | 61874
2 | 13:45:00 | 06:29:14 | 61875 | 91063
3 | 20:14:14 | 05:11:12 | 91064 | 114400
4 | 25:25:26 | 09:35:38 | 114401 | 157563
5 | 35:00:64 | 07:05:74 | 157564 | 189512
6 | 42:06:63 | 07:46:03 | 189513 | 224465
7 | 49:52:66 | 04:52:58 | 224466 | 246423
8 | 54:45:49 | 11:47:00 | 246424 | 299448
Track 01
Filename : /Users/davemajor/Desktop/Kenny Wheeler - 2003 - Dream Sequence/01 Kenny Wheeler - Unti.flac
CRC32 hash (test run) : 1BD6A381
CRC32 hash : 1BD6A381
CRC32 hash (skip zero) : 13BE805D
AccurateRip signature : B196B6D3
->Track not present in AccurateRip database.
Statistics
Read error : 0
Skipped (treated as error) : 0
Edge jitter error (maybe fixed) : 0
Atom jitter error (maybe fixed) : 0
Drift error (maybe fixed) : 0
Dropped bytes error (maybe fixed) : 0
Duplicated bytes error (maybe fixed) : 0
Inconsistency in error sectors : 0
Track 02
Filename : /Users/davemajor/Desktop/Kenny Wheeler - 2003 - Dream Sequence/02 Kenny Wheeler - Drum Sequence.flac
CRC32 hash (test run) : 9A33B09C
CRC32 hash : 9A33B09C
CRC32 hash (skip zero) : CA839C17
AccurateRip signature : D2FEEA7C
->Track not present in AccurateRip database.
Statistics
Read error : 0
Skipped (treated as error) : 0
Edge jitter error (maybe fixed) : 0
Atom jitter error (maybe fixed) : 0
Drift error (maybe fixed) : 0
Dropped bytes error (maybe fixed) : 0
Duplicated bytes error (maybe fixed) : 0
Inconsistency in error sectors : 0
Track 03
Filename : /Users/davemajor/Desktop/Kenny Wheeler - 2003 - Dream Sequence/03 Kenny Wheeler - Dream Sequence.flac
CRC32 hash (test run) : 5A8258A2
CRC32 hash : 5A8258A2
CRC32 hash (skip zero) : 452640F1
AccurateRip signature : D153161B
->Track not present in AccurateRip database.
Statistics
Read error : 0
Skipped (treated as error) : 0
Edge jitter error (maybe fixed) : 0
Atom jitter error (maybe fixed) : 0
Drift error (maybe fixed) : 0
Dropped bytes error (maybe fixed) : 0
Duplicated bytes error (maybe fixed) : 0
Inconsistency in error sectors : 0
Track 04
Filename : /Users/davemajor/Desktop/Kenny Wheeler - 2003 - Dream Sequence/04 Kenny Wheeler - Cousin Mary.flac
CRC32 hash (test run) : 8FBE81C9
CRC32 hash : 8FBE81C9
CRC32 hash (skip zero) : 0530A0C7
AccurateRip signature : 92ED1CCF
->Track not present in AccurateRip database.
Statistics
Read error : 0
Skipped (treated as error) : 0
Edge jitter error (maybe fixed) : 1
Atom jitter error (maybe fixed) : 1
Drift error (maybe fixed) : 0
Dropped bytes error (maybe fixed) : 0
Duplicated bytes error (maybe fixed) : 0
Inconsistency in error sectors : 0
Track 05
Filename : /Users/davemajor/Desktop/Kenny Wheeler - 2003 - Dream Sequence/05 Kenny Wheeler - Nonetheless.flac
CRC32 hash (test run) : 3C7E128A
CRC32 hash : 3C7E128A
CRC32 hash (skip zero) : D9320240
AccurateRip signature : 1ED74C2B
->Track not present in AccurateRip database.
Statistics
Read error : 0
Skipped (treated as error) : 0
Edge jitter error (maybe fixed) : 0
Atom jitter error (maybe fixed) : 0
Drift error (maybe fixed) : 0
Dropped bytes error (maybe fixed) : 0
Duplicated bytes error (maybe fixed) : 0
Inconsistency in error sectors : 0
Track 06
Filename : /Users/davemajor/Desktop/Kenny Wheeler - 2003 - Dream Sequence/06 Kenny Wheeler - A Flower Is A Lovesome Thing.flac
CRC32 hash (test run) : 9F9FCB07
CRC32 hash : 9F9FCB07
CRC32 hash (skip zero) : 67C39F9E
AccurateRip signature : 80CB7FA0
->Track not present in AccurateRip database.
Statistics
Read error : 0
Skipped (treated as error) : 0
Edge jitter error (maybe fixed) : 0
Atom jitter error (maybe fixed) : 0
Drift error (maybe fixed) : 0
Dropped bytes error (maybe fixed) : 0
Duplicated bytes error (maybe fixed) : 0
Inconsistency in error sectors : 0
Track 07
Filename : /Users/davemajor/Desktop/Kenny Wheeler - 2003 - Dream Sequence/07 Kenny Wheeler - Hearken.flac
CRC32 hash (test run) : FD114082
CRC32 hash : FD114082
CRC32 hash (skip zero) : E47918F3
AccurateRip signature : D1A03133
->Track not present in AccurateRip database.
Statistics
Read error : 0
Skipped (treated as error) : 0
Edge jitter error (maybe fixed) : 0
Atom jitter error (maybe fixed) : 0
Drift error (maybe fixed) : 0
Dropped bytes error (maybe fixed) : 0
Duplicated bytes error (maybe fixed) : 0
Inconsistency in error sectors : 0
Track 08
Filename : /Users/davemajor/Desktop/Kenny Wheeler - 2003 - Dream Sequence/08 Kenny Wheeler - Kind Folks.flac
CRC32 hash (test run) : 2C0F0472
CRC32 hash : 2C0F0472
CRC32 hash (skip zero) : 2B90408D
AccurateRip signature : 70161532
->Track not present in AccurateRip database.
Statistics
Read error : 0
Skipped (treated as error) : 0
Edge jitter error (maybe fixed) : 0
Atom jitter error (maybe fixed) : 0
Drift error (maybe fixed) : 0
Dropped bytes error (maybe fixed) : 0
Duplicated bytes error (maybe fixed) : 0
Inconsistency in error sectors : 0
No errors occurred
End of status report
 
.cue
TITLE "Dream Sequence"
PERFORMER "Kenny Wheeler"
REM GENRE "Jazz"
FILE "01 Kenny Wheeler - Unti.wav" WAVE
TRACK 01 AUDIO
TITLE "Unti"
INDEX 01 00:00:00
TRACK 02 AUDIO
TITLE "Drum Sequence"
INDEX 00 13:41:00
FILE "02 Kenny Wheeler - Drum Sequence.wav" WAVE
INDEX 01 00:00:00
TRACK 03 AUDIO
TITLE "Dream Sequence"
INDEX 00 06:25:14
FILE "03 Kenny Wheeler - Dream Sequence.wav" WAVE
INDEX 01 00:00:00
TRACK 04 AUDIO
TITLE "Cousin Mary"
INDEX 00 05:07:12
FILE "04 Kenny Wheeler - Cousin Mary.wav" WAVE
INDEX 01 00:00:00
TRACK 05 AUDIO
TITLE "Nonetheless"
INDEX 00 09:31:38
FILE "05 Kenny Wheeler - Nonetheless.wav" WAVE
INDEX 01 00:00:00
TRACK 06 AUDIO
TITLE "A Flower Is A Lovesome Thing"
INDEX 00 07:01:74
FILE "06 Kenny Wheeler - A Flower Is A Lovesome Thing.wav" WAVE
INDEX 01 00:00:00
TRACK 07 AUDIO
TITLE "Hearken"
INDEX 00 07:42:03
FILE "07 Kenny Wheeler - Hearken.wav" WAVE
INDEX 01 00:00:00
TRACK 08 AUDIO
TITLE "Kind Folks"
INDEX 00 04:48:58
FILE "08 Kenny Wheeler - Kind Folks.wav" WAVE
INDEX 01 00:00:00
 
.accurip
[CUETools log; Date: 06/05/14 21:13:32; Version: 2.1.4]
[AccurateRip ID: 00152134-00899734-6e0f9808] found.
Track [ CRC | V2 ] Status
01 [b196b6d3|598e38d4] (0+3/3) Accurately ripped
02 [d2feea7c|5eb841e8] (0+2/2) Accurately ripped
03 [d153161b|20c2b8e1] (0+2/2) Accurately ripped
04 [92ed1ccf|6b2cbff6] (0+3/3) Accurately ripped
05 [1ed74c2b|8fd2f4f9] (0+3/3) Accurately ripped
06 [80cb7fa0|c0c98b00] (0+2/2) Accurately ripped
07 [d1a03133|a3deb25a] (0+2/2) Accurately ripped
08 [70161532|4759b9e5] (0+3/3) Accurately ripped
Track Peak [ CRC32 ] [W/O NULL]
-- 100.0 [9DE67A66] [37E52D22]
01 100.0 [1BD6A381] [13BE805D]
02 100.0 [9A33B09C] [CA839C17]
03 100.0 [5A8258A2] [452640F1]
04 87.8 [8FBE81C9] [0530A0C7]
05 100.0 [3C7E128A] [D9320240]
06 97.8 [9F9FCB07] [67C39F9E]
07 70.5 [FD114082] [E47918F3]
08 99.4 [2C0F0472] [2B90408D]

другие релизы
По всем вопросам пишите личное сообщение пользователю M0p94ok.
01:46
255
Нет комментариев. Ваш будет первым!