Вы используете незарегистрированную версию компонента "Вкладки"!

Поиск

(Free improvisation) [CD] Chris Pitsiokos | Weasel Walter | Ron Anderson — Maximalism (2013), FLAC (tracks+.cue), lossless

(Free improvisation) [CD] Chris Pitsiokos | Weasel Walter | Ron Anderson — Maximalism (2013), FLAC (tracks+.cue), lossless
Треклист:
Chris Pitsiokos
Weasel Walter
Ron Anderson
Maximalism
Жанр: free improvisation
Носитель: CD
Страна-производитель диска: USA
Год издания: 2013
Издатель (лейбл): Eleatic Records
Номер по каталогу: ELEA001
Страна: USA
Аудиокодек: FLAC (*.flac)
Тип рипа: tracks+.cue
Битрейт аудио: lossless
Продолжительность: 01:04:04
Источник: what.cd
Наличие сканов в содержимом раздачи: нет
Треклист:
01. Untitled (12:46)
02. Untitled (4:45)
03. Untitled (17:08)
04. Untitled (2:13)
05. Untitled (0:12)
06. Untitled (5:08)
07. Untitled (21:51)
 
Лог создания рипа:
Exact Audio Copy V1.0 beta 3 from 29. August 2011
EAC extraction logfile from 23. January 2014, 8:37
Weasel Walter, Ron Anderson, Chris Pitsiokos / Maximalism
Used drive : LITE-ON DVD SOHD-16P9S Adapter: 0 ID: 0
Read mode : Secure
Utilize accurate stream : Yes
Defeat audio cache : Yes
Make use of C2 pointers : No
Read offset correction : 6
Overread into Lead-In and Lead-Out : No
Fill up missing offset samples with silence : Yes
Delete leading and trailing silent blocks : No
Null samples used in CRC calculations : Yes
Used interface : Native Win32 interface for Win NT & 2000
Gap handling : Appended to previous track
Used output format : User Defined Encoder
Selected bitrate : 1024 kBit/s
Quality : High
Add ID3 tag : No
Command line compressor : C:\EAC\Exact Audio Copy\FLAC\flac.exe
Additional command line options : -8 -V -T "ARTIST=%artist%" -T "TITLE=%title%" -T "ALBUM=%albumtitle%" -T "DATE=%year%" -T "TRACKNUMBER=%tracknr%" -T "GENRE=%genre%" -T "PERFORMER=%albuminterpret%" -T "COMPOSER=%composer%" %haslyrics%--tag-from-file=LYRICS="%lyricsfile%"%haslyrics% -T "ALBUMARTIST=%albumartist%" -T "DISCNUMBER=%cdnumber%" -T "TOTALDISCS=%totalcds%" -T "TOTALTRACKS=%numtracks%" -T "COMMENT=%comment%" %source% -o %dest%
TOC of the extracted CD
Track | Start | Length | Start sector | End sector
---------------------------------------------------------
1 | 0:00.00 | 12:46.37 | 0 | 57486
2 | 12:46.37 | 4:44.51 | 57487 | 78837
3 | 17:31.13 | 17:08.08 | 78838 | 155945
4 | 34:39.21 | 2:13.09 | 155946 | 165929
5 | 36:52.30 | 0:12.16 | 165930 | 166845
6 | 37:04.46 | 5:07.42 | 166846 | 189912
7 | 42:12.13 | 21:51.29 | 189913 | 288266
Track 1
Filename C:\EAC-rips\Walter_Anderson_Pitsiokos - Maximalism\01 - Untitled.wav
Pre-gap length 0:00:02.00
Peak level 94.4 %
Extraction speed 6.2 X
Track quality 100.0 %
Test CRC 60BF2BB7
Copy CRC 60BF2BB7
Track not present in AccurateRip database
Copy OK
Track 2
Filename C:\EAC-rips\Walter_Anderson_Pitsiokos - Maximalism\02 - Untitled.wav
Pre-gap length 0:00:03.57
Peak level 94.4 %
Extraction speed 6.7 X
Track quality 100.0 %
Test CRC EA2BF94E
Copy CRC EA2BF94E
Track not present in AccurateRip database
Copy OK
Track 3
Filename C:\EAC-rips\Walter_Anderson_Pitsiokos - Maximalism\03 - Untitled.wav
Pre-gap length 0:00:02.28
Peak level 94.4 %
Extraction speed 8.0 X
Track quality 99.9 %
Test CRC 17BA6448
Copy CRC 17BA6448
Track not present in AccurateRip database
Copy OK
Track 4
Filename C:\EAC-rips\Walter_Anderson_Pitsiokos - Maximalism\04 - Untitled.wav
Pre-gap length 0:00:02.70
Peak level 94.4 %
Extraction speed 5.9 X
Track quality 99.9 %
Test CRC FEDD7F92
Copy CRC FEDD7F92
Track not present in AccurateRip database
Copy OK
Track 5
Filename C:\EAC-rips\Walter_Anderson_Pitsiokos - Maximalism\05 - Untitled.wav
Pre-gap length 0:00:02.60
Peak level 91.7 %
Extraction speed 2.5 X
Track quality 100.0 %
Test CRC B96FFA02
Copy CRC B96FFA02
Track not present in AccurateRip database
Copy OK
Track 6
Filename C:\EAC-rips\Walter_Anderson_Pitsiokos - Maximalism\06 - Untitled.wav
Pre-gap length 0:00:02.84
Peak level 94.4 %
Extraction speed 6.9 X
Track quality 99.9 %
Test CRC F559277A
Copy CRC F559277A
Track not present in AccurateRip database
Copy OK
Track 7
Filename C:\EAC-rips\Walter_Anderson_Pitsiokos - Maximalism\07 - Untitled.wav
Pre-gap length 0:00:02.44
Peak level 94.4 %
Extraction speed 6.9 X
Track quality 99.9 %
Test CRC 078E6FC4
Copy CRC 078E6FC4
Track not present in AccurateRip database
Copy OK
None of the tracks are present in the AccurateRip database
No errors occurred
End of status report
---- CUETools DB Plugin V2.1.3
[CTDB TOCID: BpkFIII97V5YgCV0yjDBxgYM4Pw-] disk not present in database, Submit result: BpkFIII97V5YgCV0yjDBxgYM4Pw- has been uploaded
==== Log checksum AFBCC8F61EF2AAFE452D37C96328FC9A4442BB12F9B12E7404C2A80736545A40 ====
 
Содержание индексной карты (.CUE):
REM DATE 2013
REM DISCID 4E0F0307
REM COMMENT "ExactAudioCopy v1.0b3"
PERFORMER "Chris Pitsiokos | Weasel Walter | Ron Anderson"
TITLE "Maximalism"
FILE "1. Untitled.wav" WAVE
TRACK 01 AUDIO
TITLE "Untitled"
PERFORMER "Chris Pitsiokos | Weasel Walter | Ron Anderson"
INDEX 01 00:00:00
TRACK 02 AUDIO
TITLE "Untitled"
PERFORMER "Chris Pitsiokos | Weasel Walter | Ron Anderson"
ISRC MTKDW1212345
INDEX 00 12:42:69
FILE "2. Untitled.wav" WAVE
INDEX 01 00:00:00
TRACK 03 AUDIO
TITLE "Untitled"
PERFORMER "Chris Pitsiokos | Weasel Walter | Ron Anderson"
INDEX 00 04:42:30
FILE "3. Untitled.wav" WAVE
INDEX 01 00:00:00
TRACK 04 AUDIO
TITLE "Untitled"
PERFORMER "Chris Pitsiokos | Weasel Walter | Ron Anderson"
INDEX 00 17:05:30
FILE "4. Untitled.wav" WAVE
INDEX 01 00:00:00
TRACK 05 AUDIO
TITLE "Untitled"
PERFORMER "Chris Pitsiokos | Weasel Walter | Ron Anderson"
INDEX 00 02:10:39
FILE "5. Untitled.wav" WAVE
INDEX 01 00:00:00
TRACK 06 AUDIO
TITLE "Untitled"
PERFORMER "Chris Pitsiokos | Weasel Walter | Ron Anderson"
INDEX 00 00:09:28
FILE "6. Untitled.wav" WAVE
INDEX 01 00:00:00
TRACK 07 AUDIO
TITLE "Untitled"
PERFORMER "Chris Pitsiokos | Weasel Walter | Ron Anderson"
INDEX 00 05:05:09
FILE "7. Untitled.wav" WAVE
INDEX 01 00:00:00
По всем вопросам пишите личное сообщение пользователю M0p94ok.
01:46
179
Нет комментариев. Ваш будет первым!