Вы используете незарегистрированную версию компонента "Вкладки"!

Поиск

(Free Funk, Free Jazz) [CD] Ronald Shannon Jackson and The Decoding Society - Barbeque Dog - 1983, FLAC (tracks+.cue), lossless

(Free Funk, Free Jazz) [CD] Ronald Shannon Jackson and The Decoding Society - Barbeque Dog - 1983, FLAC (tracks+.cue), lossless
Треклист:
Ronald Shannon Jackson and The Decoding Society / Barbeque Dog
Жанр: Free Funk, Free Jazz
Носитель: CD
Страна-производитель диска: U.S.A.
Год издания: 1983
Издатель (лейбл): Antilles
Номер по каталогу: 422-848 817-2
Аудиокодек: FLAC (*.flac)
Тип рипа: tracks+.cue
Битрейт аудио: lossless
Продолжительность: 39:06
Источник (релизер): я
Наличие сканов в содержимом раздачи: да
Треклист:
1. Barbeque Dog 4:21
2. Trials of an Honest John 3:24
3. Yugo Boy 3:10
4. Say What You Will 3:15
5. Mystery at Dawn 4:38
6. Gossip 5:48
7. When Cherry Trees Bloom in Winter, You Can Smell Last Summer 5:29
8. Harlem Opera 9:02
All compositions by Ronald Shannon Jackson.
Encoded March 1983 at Jam Recording, London, England. Decoded April 1983 at Electric Lady Studios, NYC.
Zane Massey – Alto, Soprano and Tenor Saxophones, Percussion, Voice
Henry Scott – Trumpet, Flugelhorn, Percussion, Voice
Vernon Reid – Guitars, Guitar Synthesizer, Steel Guitar, Banjo, Percussion, Voice, Coins
Melvin Gibbs – Electric Bass, Electric Piccolo Bass, Percussion, Voice
Reverend Bruce Johnson – Fretless Electric Bass, Percussion, Voice
Ronald Shannon Jackson – Drums, Flute and Bass Flute, Voice, Bertoia Sound Sculpture
 
Лог создания рипа
Exact Audio Copy V1.0 beta 3 from 29. August 2011
EAC extraction logfile from 5. May 2014, 14:42
Ronald Shannon Jackson and The Decoding Society / Barbeque Dog
Used drive : SlimtypeeNAU508 5 Adapter: 1 ID: 0
Read mode : Secure
Utilize accurate stream : Yes
Defeat audio cache : Yes
Make use of C2 pointers : No
Read offset correction : 6
Overread into Lead-In and Lead-Out : No
Fill up missing offset samples with silence : Yes
Delete leading and trailing silent blocks : No
Null samples used in CRC calculations : Yes
Used interface : Native Win32 interface for Win NT & 2000
Gap handling : Appended to previous track
Used output format : User Defined Encoder
Selected bitrate : 768 kBit/s
Quality : High
Add ID3 tag : No
Command line compressor : C:\Program Files (x86)\Exact Audio Copy\Flac\flac.exe
Additional command line options : -8 -V -T "ARTIST=%artist%" -T "TITLE=%title%" -T "ALBUM=%albumtitle%" -T "DATE=%year%" -T "TRACKNUMBER=%tracknr%" -T "TOTALTRACKS=%numtracks%" -T "GENRE=%genre%" -T "ALBUMARTIST=%albumartist%" -T "ALBUM ARTIST=%albumartist%" -T "COMMENT=EAC Secure Mode, Test & Copy, AccurateRip, FLAC -8" %source%
TOC of the extracted CD
Track | Start | Length | Start sector | End sector
---------------------------------------------------------
1 | 0:00.32 | 4:21.25 | 32 | 19631
2 | 4:21.57 | 3:23.43 | 19632 | 34899
3 | 7:45.25 | 3:09.65 | 34900 | 49139
4 | 10:55.15 | 3:14.40 | 49140 | 63729
5 | 14:09.55 | 4:38.07 | 63730 | 84586
6 | 18:47.62 | 5:48.05 | 84587 | 110691
7 | 24:35.67 | 5:28.45 | 110692 | 135336
8 | 30:04.37 | 9:02.25 | 135337 | 176011
Track 1
Filename C:\EAC rips\01 - Barbeque Dog.wav
Pre-gap length 0:00:02.32
Peak level 100.0 %
Extraction speed 1.1 X
Track quality 100.0 %
Test CRC 1D1D1651
Copy CRC 1D1D1651
Cannot be verified as accurate (confidence 3) [5445777D], AccurateRip returned [3153E148] (AR v2)
Copy OK
Track 2
Filename C:\EAC rips\02 - Trials of an Honest John.wav
Peak level 100.0 %
Extraction speed 1.1 X
Track quality 100.0 %
Test CRC 4AC6A28E
Copy CRC 4AC6A28E
Cannot be verified as accurate (confidence 3) [D581B408], AccurateRip returned [C1D3432B] (AR v2)
Copy OK
Track 3
Filename C:\EAC rips\03 - Yugo Boy.wav
Pre-gap length 0:00:00.03
Peak level 80.3 %
Extraction speed 1.0 X
Track quality 99.9 %
Test CRC 4D2C3877
Copy CRC 4D2C3877
Cannot be verified as accurate (confidence 3) [01C69044], AccurateRip returned [D0A2AE91] (AR v2)
Copy OK
Track 4
Filename C:\EAC rips\04 - Say What You Will.wav
Peak level 89.2 %
Extraction speed 1.1 X
Track quality 99.9 %
Test CRC C787C621
Copy CRC C787C621
Cannot be verified as accurate (confidence 3) [B2360A98], AccurateRip returned [440F9BD5] (AR v2)
Copy OK
Track 5
Filename C:\EAC rips\05 - Mystery at Dawn.wav
Pre-gap length 0:00:01.25
Peak level 57.7 %
Extraction speed 1.4 X
Track quality 100.0 %
Test CRC 2ECC4761
Copy CRC 2ECC4761
Cannot be verified as accurate (confidence 3) [E1A0B055], AccurateRip returned [5CD65B60] (AR v2)
Copy OK
Track 6
Filename C:\EAC rips\06 - Gossip.wav
Pre-gap length 0:00:00.65
Peak level 92.8 %
Extraction speed 1.6 X
Track quality 100.0 %
Test CRC 484CE893
Copy CRC 484CE893
Cannot be verified as accurate (confidence 3) [9400BBE3], AccurateRip returned [FC0D15F5] (AR v2)
Copy OK
Track 7
Filename C:\EAC rips\07 - When Cherry Trees Bloom in Winter, You Can Smell Last Summer.wav
Pre-gap length 0:00:00.57
Peak level 100.0 %
Extraction speed 1.7 X
Track quality 100.0 %
Test CRC 933488B0
Copy CRC 933488B0
Cannot be verified as accurate (confidence 3) [81D2AEE3], AccurateRip returned [FFEF116D] (AR v2)
Copy OK
Track 8
Filename C:\EAC rips\08 - Harlem Opera.wav
Pre-gap length 0:00:02.20
Peak level 91.1 %
Extraction speed 1.9 X
Track quality 100.0 %
Test CRC 0AFE1DB0
Copy CRC 0AFE1DB0
Cannot be verified as accurate (confidence 3) [FD2F3401], AccurateRip returned [8F720814] (AR v2)
Copy OK
No tracks could be verified as accurate
You may have a different pressing from the one(s) in the database
No errors occurred
End of status report
---- CUETools DB Plugin V2.1.4
[CTDB TOCID: rQnySMX1VtRTb8k0VT5y_QENCA0-] disk not present in database
Submit result: rQnySMX1VtRTb8k0VT5y_QENCA0- has been uploaded
==== Log checksum D5EC937ACF78AE650CC13F462EA76A462B6A6C4FF4AC97191B49032E86A5A92B ====
 
Содержание индексной карты (.CUE)
REM GENRE Jazz
REM DATE 1983
REM DISCID 6D092A08
REM COMMENT "ExactAudioCopy v1.0b3"
PERFORMER "Ronald Shannon Jackson and The Decoding Society"
TITLE "Barbeque Dog"
FILE "01 - Barbeque Dog.wav" WAVE
TRACK 01 AUDIO
TITLE "Barbeque Dog"
PERFORMER "Ronald Shannon Jackson and The Decoding Society"
PREGAP 00:00:32
INDEX 01 00:00:00
FILE "02 - Trials of an Honest John.wav" WAVE
TRACK 02 AUDIO
TITLE "Trials of an Honest John"
PERFORMER "Ronald Shannon Jackson and The Decoding Society"
INDEX 01 00:00:00
TRACK 03 AUDIO
TITLE "Yugo Boy"
PERFORMER "Ronald Shannon Jackson and The Decoding Society"
INDEX 00 03:23:40
FILE "03 - Yugo Boy.wav" WAVE
INDEX 01 00:00:00
FILE "04 - Say What You Will.wav" WAVE
TRACK 04 AUDIO
TITLE "Say What You Will"
PERFORMER "Ronald Shannon Jackson and The Decoding Society"
INDEX 01 00:00:00
TRACK 05 AUDIO
TITLE "Mystery at Dawn"
PERFORMER "Ronald Shannon Jackson and The Decoding Society"
INDEX 00 03:13:15
FILE "05 - Mystery at Dawn.wav" WAVE
INDEX 01 00:00:00
TRACK 06 AUDIO
TITLE "Gossip"
PERFORMER "Ronald Shannon Jackson and The Decoding Society"
INDEX 00 04:37:17
FILE "06 - Gossip.wav" WAVE
INDEX 01 00:00:00
TRACK 07 AUDIO
TITLE "When Cherry Trees Bloom in Winter, You Can Smell Last Summer"
PERFORMER "Ronald Shannon Jackson and The Decoding Society"
INDEX 00 05:47:23
FILE "07 - When Cherry Trees Bloom in Winter, You Can Smell Last Summer.wav" WAVE
INDEX 01 00:00:00
TRACK 08 AUDIO
TITLE "Harlem Opera"
PERFORMER "Ronald Shannon Jackson and The Decoding Society"
INDEX 00 05:26:25
FILE "08 - Harlem Opera.wav" WAVE
INDEX 01 00:00:00
 
CUETools
[CUETools log; Date: 05.05.2014 16:11:57; Version: 2.1.4]
Pregap length 00:00:32.
[CTDB TOCID: rQnySMX1VtRTb8k0VT5y_QENCA0-] found.
Track | CTDB Status
1 | (1/1) Accurately ripped
2 | (1/1) Accurately ripped
3 | (1/1) Accurately ripped
4 | (1/1) Accurately ripped
5 | (1/1) Accurately ripped
6 | (1/1) Accurately ripped
7 | (1/1) Accurately ripped
8 | (1/1) Accurately ripped
[AccurateRip ID: 000a490e-00465178-6d092a08] found.
Track [ CRC | V2 ] Status
01 [77d438b3|5445777d] (0+0/5) No match
02 [f0b6481a|d581b408] (0+0/5) No match
03 [23ba20fe|01c69044] (0+0/5) No match
04 [a79db23c|b2360a98] (0+0/5) No match
05 [6e52cf54|e1a0b055] (0+0/5) No match
06 [887fe5d5|9400bbe3] (0+0/3) No match
07 [140d9888|81d2aee3] (0+0/3) No match
08 [b2839420|fd2f3401] (0+0/3) No match
Offsetted by 15:
01 [3153e148] (3/5) Accurately ripped
02 [c1d3432b] (3/5) Accurately ripped
03 [d0a2ae91] (3/5) Accurately ripped
04 [440f9bd5] (3/5) Accurately ripped
05 [5cd65b60] (3/5) Accurately ripped
06 [fc0d15f5] (3/3) Accurately ripped
07 [ffef116d] (3/3) Accurately ripped
08 [8f720814] (3/3) Accurately ripped
Track Peak [ CRC32 ] [W/O NULL] [ LOG ]
-- 100.0 [7F725783] [5C80E286]
01 100.0 [1D1D1651] [03A896E6] CRC32
02 100.0 [4AC6A28E] [6DDC08FA] CRC32
03 80.3 [4D2C3877] [A4494A45] CRC32
04 89.2 [C787C621] [CADD23B7] CRC32
05 57.7 [2ECC4761] [1F02A84B] CRC32
06 92.8 [484CE893] [FDD7041E] CRC32
07 100.0 [933488B0] [2C9C70DA] CRC32
08 91.1 [0AFE1DB0] [9252ABC3] CRC32
Any questions - support@pro-jazz.com. Есть вопросы - support@pro-jazz.com
01:45
331
Нет комментариев. Ваш будет первым!