Вы используете незарегистрированную версию компонента "Вкладки"!

Поиск

(Free Jazz, Modern Creative) The Vinny Golia Quintet - Nation Of Laws - 1997, FLAC (tracks+.cue) lossless

Треклист:
The Vinny Golia Quintet / Nation Of Laws
Жанр: Free Jazz, Modern Creative
Страна-производитель диска: US
Год издания диска: 1997
Издатель (лейбл): Nine Winds
Номер по каталогу: NW198CD
Страна: US
Аудио кодек: FLAC (*.flac)
Тип рипа: tracks+.cue
Битрейт аудио: lossless
Продолжительность: 74:20
Источник (релизер): what.cd
Наличие сканов в содержимом раздачи: да
Треклист:
1. Not Very Pleasance 12:39
2. Perfect In The Pocket 15:07
3. Grampa's Function 9:14
4. Big Child On The Loose 14:46
5. Early Morning Futon Phantast 7:41
6. Splinter 14:25
 
Лог создания рипа
Exact Audio Copy V0.99 prebeta 4 from 23. January 2008
EAC extraction logfile from 23. April 2009, 19:47
Vinny Golia Quintet / Nation Of Laws
Used drive : HL-DT-STDVDRAM GSA-4163B Adapter: 1 ID: 1
Read mode : Secure
Utilize accurate stream : Yes
Defeat audio cache : No
Make use of C2 pointers : Yes
Read offset correction : 667
Overread into Lead-In and Lead-Out : No
Fill up missing offset samples with silence : Yes
Delete leading and trailing silent blocks : No
Null samples used in CRC calculations : No
Used interface : Native Win32 interface for Win NT & 2000
Gap handling : Not detected, thus appended to previous track
Used output format : Internal WAV Routines
Sample format : 44.100 Hz; 16 Bit; Stereo
TOC of the extracted CD
Track | Start | Length | Start sector | End sector
---------------------------------------------------------
1 | 0:00.00 | 12:44.25 | 0 | 57324
2 | 12:44.25 | 15:11.72 | 57325 | 125721
3 | 27:56.22 | 9:19.30 | 125722 | 167676
4 | 37:15.52 | 14:51.53 | 167677 | 234554
5 | 52:07.30 | 7:45.67 | 234555 | 269496
6 | 59:53.22 | 14:26.63 | 269497 | 334509
Track 1
Filename C:\Documents and Settings\Thomas Fuller\My Documents\My Music\Jazz\Nation of Laws\01_Not Very Pleasance.wav
Peak level 99.0 %
Track quality 100.0 %
Copy CRC 1A22F447
Track not present in AccurateRip database
Copy OK
Track 2
Filename C:\Documents and Settings\Thomas Fuller\My Documents\My Music\Jazz\Nation of Laws\02_Perfect In The Pocket.wav
Peak level 99.0 %
Track quality 100.0 %
Copy CRC 637F53D6
Track not present in AccurateRip database
Copy OK
Track 3
Filename C:\Documents and Settings\Thomas Fuller\My Documents\My Music\Jazz\Nation of Laws\03_Grampa's Function.wav
Peak level 99.0 %
Track quality 100.0 %
Copy CRC F6174C2A
Track not present in AccurateRip database
Copy OK
Track 4
Filename C:\Documents and Settings\Thomas Fuller\My Documents\My Music\Jazz\Nation of Laws\04_Big Child On The Loose.wav
Peak level 100.0 %
Track quality 100.0 %
Copy CRC E8741489
Track not present in AccurateRip database
Copy OK
Track 5
Filename C:\Documents and Settings\Thomas Fuller\My Documents\My Music\Jazz\Nation of Laws\05_Early Morning Futon Phantast.wav
Peak level 75.5 %
Track quality 100.0 %
Copy CRC 463E6F89
Track not present in AccurateRip database
Copy OK
Track 6
Filename C:\Documents and Settings\Thomas Fuller\My Documents\My Music\Jazz\Nation of Laws\06_Splinter.wav
Peak level 100.0 %
Track quality 100.0 %
Copy CRC ECEC571D
Track not present in AccurateRip database
Copy OK
None of the tracks are present in the AccurateRip database
No errors occurred
End of status report
 
Содержание индексной карты (.CUE)
REM GENRE Jazz
REM DATE 1996
REM DISCID 5E116C06
REM COMMENT "ExactAudioCopy v0.99pb4"
PERFORMER "Vinny Golia Quintet"
TITLE "Nation Of Laws"
FILE "01_Not Very Pleasance.wav" WAVE
TRACK 01 AUDIO
TITLE "Not Very Pleasance"
PERFORMER "Vinny Golia Quintet"
INDEX 01 00:00:00
TRACK 02 AUDIO
TITLE "Perfect In The Pocket"
PERFORMER "Vinny Golia Quintet"
INDEX 00 12:39:20
FILE "02_Perfect In The Pocket.wav" WAVE
INDEX 01 00:00:00
TRACK 03 AUDIO
TITLE "Grampa's Function"
PERFORMER "Vinny Golia Quintet"
INDEX 00 15:07:35
FILE "03_Grampa's Function.wav" WAVE
INDEX 01 00:00:00
TRACK 04 AUDIO
TITLE "Big Child On The Loose"
PERFORMER "Vinny Golia Quintet"
INDEX 00 09:15:08
FILE "04_Big Child On The Loose.wav" WAVE
INDEX 01 00:00:00
TRACK 05 AUDIO
TITLE "Early Morning Futon Phantast"
PERFORMER "Vinny Golia Quintet"
INDEX 00 14:47:20
FILE "05_Early Morning Futon Phantast.wav" WAVE
INDEX 01 00:00:00
TRACK 06 AUDIO
TITLE "Splinter"
PERFORMER "Vinny Golia Quintet"
INDEX 00 07:41:43
FILE "06_Splinter.wav" WAVE
INDEX 01 00:00:00
 
Лог проверки качества
d:\>d:\aucdtect -d/-m0 d:\zzz\*.wav
auCDtect: CD records authenticity detector, version 0.8.2
Copyright (c) 2004 Oleg Berngardt. All rights reserved.
Copyright (c) 2004 Alexander Djourik. All rights reserved.
------------------------------------------------------------
Processing file: [00. Big Child On The Loose.wav]
------------------------------------------------------------
This track looks like CDDA with probability 100%
------------------------------------------------------------
Processing file: [00. Early Morning Futon Phantast.wav]
------------------------------------------------------------
This track looks like CDDA with probability 100%
------------------------------------------------------------
Processing file: [00. Grampa's Function.wav]
------------------------------------------------------------
This track looks like CDDA with probability 99%
------------------------------------------------------------
Processing file: [00. Not Very Pleasance.wav]
------------------------------------------------------------
This track looks like CDDA with probability 100%
------------------------------------------------------------
Processing file: [00. Perfect In The Pocket.wav]
------------------------------------------------------------
This track looks like CDDA with probability 100%
------------------------------------------------------------
Processing file: [00. Splinter.wav]
------------------------------------------------------------
This track looks like CDDA with probability 100%
------------------------------------------------------------
Final Conclusion:
------------------------------------------------------------
These tracks looks like CDDA with probability 100%
 
Скриншот спектра частот
Доп. информация:
 
Album Info
Recorded 7/30/96 Calif.
All compositions by Vinny Golia
 
Состав
Vinny Golia: sopranino, tenor, baritone saxophones/A, contralto and contrabass bass clarinets
Rob Blakeslee: trumpet
Nels Cline: 6 string electric & baritone guitars
Joel Hamilton: acoustic bass
Alex Cline: drums & percussion
По всем вопросам пишите личное сообщение пользователю M0p94ok.
07:18
167
Нет комментариев. Ваш будет первым!