Вы используете незарегистрированную версию компонента "Вкладки"!

Поиск

(Avant-Garde, Modern Composition) Elliott Sharp & Carbon - Monster Curve - 1988, FLAC (tracks+.cue) lossless

Треклист:
Elliott Sharp & Carbon / Monster Curve
Жанр: Avant-Garde, Modern Composition
Страна-производитель диска: US
Год издания диска: 1988
Издатель (лейбл): SST Records
Номер по каталогу: SST 208 CD
Страна: US
Аудио кодек: FLAC (*.flac)
Тип рипа: tracks+.cue
Битрейт аудио: lossless
Продолжительность: 72:12
Источник (релизер): what.cd
Наличие сканов в содержимом раздачи: нет
Треклист:
1 Geometry 5:31
2 Iso 5:02
3 Helicopters 5:13
4 Inverse Proportions 5:58
Trumpet - Lesli Dalaba
5 CIA Pope 2:48
6 Intervention 4:14
7 Last Laugh 2:46
8 Vicious Cycle 3:20
9 Singularity 5:10
10 Squig 3:42
11 Turbulence 5:10
Trombone - Ken Heer
Trombone, Trombone [Bass] - Jim Staley
12 Dusts 3:25
Trombone - Ken Heer
Trombone, Trombone [Bass] - Jim Staley
13 Lacunar 4:02
14 Not-Yet-Time 15:47
 
Лог создания рипа
Exact Audio Copy V0.99 prebeta 4 from 23. January 2008
EAC extraction logfile from 1. October 2008, 19:22
Elliott Sharp - Carbon / Monster Curve
Used drive : Optiarc DVD RW AD-7200A Adapter: 0 ID: 3
Read mode : Secure
Utilize accurate stream : Yes
Defeat audio cache : Yes
Make use of C2 pointers : No
Read offset correction : 48
Overread into Lead-In and Lead-Out : No
Fill up missing offset samples with silence : Yes
Delete leading and trailing silent blocks : No
Null samples used in CRC calculations : Yes
Used interface : Installed external ASPI interface
Gap handling : Appended to previous track
Used output format : User Defined Encoder
Selected bitrate : 640 kBit/s
Quality : High
Add ID3 tag : No
Command line compressor : C:\Program Files\Exact Audio Copy\flac.exe
Additional command line options : • -8 -A tukey(0.25) -A gauss(0.1875) -b 4096 -V -T "artist=%a" -T "title=%t" -T "album=%g" -T "date=%y" -T "tracknumber=%n" -T "genre=%m" %s --sector-align
TOC of the extracted CD
Track | Start | Length | Start sector | End sector
---------------------------------------------------------
1 | 0:00.00 | 5:30.65 | 0 | 24814
2 | 5:30.65 | 5:00.42 | 24815 | 47356
3 | 10:31.32 | 5:13.74 | 47357 | 70905
4 | 15:45.31 | 5:56.64 | 70906 | 97669
5 | 21:42.20 | 2:48.19 | 97670 | 110288
6 | 24:30.39 | 4:14.62 | 110289 | 129400
7 | 28:45.26 | 2:44.20 | 129401 | 141720
8 | 31:29.46 | 3:19.31 | 141721 | 156676
9 | 34:49.02 | 5:09.08 | 156677 | 179859
10 | 39:58.10 | 3:41.53 | 179860 | 196487
11 | 43:39.63 | 5:09.68 | 196488 | 219730
12 | 48:49.56 | 3:24.43 | 219731 | 235073
13 | 52:14.24 | 4:01.58 | 235074 | 253206
14 | 56:16.07 | 15:56.67 | 253207 | 324973
Track 1
Filename H:\Elliott Sharp - Carbon - Monster Curve\01 - Elliott Sharp - Carbon - Geometry .wav
Pre-gap length 0:00:02.00
Peak level 98.0 %
Track quality 100.0 %
Test CRC 9243735D
Copy CRC 9243735D
Copy OK
Track 2
Filename H:\Elliott Sharp - Carbon - Monster Curve\02 - Elliott Sharp - Carbon - Iso .wav
Peak level 98.0 %
Track quality 100.0 %
Test CRC 1C0A0438
Copy CRC 1C0A0438
Copy OK
Track 3
Filename H:\Elliott Sharp - Carbon - Monster Curve\03 - Elliott Sharp - Carbon - Helicopters .wav
Peak level 98.0 %
Track quality 100.0 %
Test CRC 2179C25B
Copy CRC 2179C25B
Copy OK
Track 4
Filename H:\Elliott Sharp - Carbon - Monster Curve\04 - Elliott Sharp - Carbon - Inverse Proportions .wav
Peak level 98.0 %
Track quality 100.0 %
Test CRC D9A734BB
Copy CRC D9A734BB
Copy OK
Track 5
Filename H:\Elliott Sharp - Carbon - Monster Curve\05 - Elliott Sharp - Carbon - Cia Pope .wav
Peak level 98.0 %
Track quality 100.0 %
Test CRC 4E41C9CD
Copy CRC 4E41C9CD
Copy OK
Track 6
Filename H:\Elliott Sharp - Carbon - Monster Curve\06 - Elliott Sharp - Carbon - Intervention .wav
Peak level 98.0 %
Track quality 100.0 %
Test CRC D8C70EC0
Copy CRC D8C70EC0
Copy OK
Track 7
Filename H:\Elliott Sharp - Carbon - Monster Curve\07 - Elliott Sharp - Carbon - Last Laugh .wav
Peak level 98.0 %
Track quality 100.0 %
Test CRC 5886CE5E
Copy CRC 5886CE5E
Copy OK
Track 8
Filename H:\Elliott Sharp - Carbon - Monster Curve\08 - Elliott Sharp - Carbon - Vicious Cycle .wav
Pre-gap length 0:00:00.01
Peak level 98.0 %
Track quality 100.0 %
Test CRC 98FA8193
Copy CRC 98FA8193
Copy OK
Track 9
Filename H:\Elliott Sharp - Carbon - Monster Curve\09 - Elliott Sharp - Carbon - Singularity .wav
Peak level 98.0 %
Track quality 100.0 %
Test CRC B78D4C94
Copy CRC B78D4C94
Copy OK
Track 10
Filename H:\Elliott Sharp - Carbon - Monster Curve\10 - Elliott Sharp - Carbon - Squig .wav
Peak level 98.0 %
Track quality 100.0 %
Test CRC 6C2779A8
Copy CRC 6C2779A8
Copy OK
Track 11
Filename H:\Elliott Sharp - Carbon - Monster Curve\11 - Elliott Sharp - Carbon - Turbulence .wav
Peak level 98.0 %
Track quality 100.0 %
Test CRC 8745CF87
Copy CRC 8745CF87
Copy OK
Track 12
Filename H:\Elliott Sharp - Carbon - Monster Curve\12 - Elliott Sharp - Carbon - Dusts .wav
Peak level 98.0 %
Track quality 100.0 %
Test CRC EB0C678C
Copy CRC EB0C678C
Copy OK
Track 13
Filename H:\Elliott Sharp - Carbon - Monster Curve\13 - Elliott Sharp - Carbon - Lacunar .wav
Peak level 98.0 %
Track quality 100.0 %
Test CRC D8E9990E
Copy CRC D8E9990E
Copy OK
Track 14
Filename H:\Elliott Sharp - Carbon - Monster Curve\14 - Elliott Sharp - Carbon - Not-Yet-Time .wav
Peak level 98.0 %
Track quality 100.0 %
Test CRC 04DA9A40
Copy CRC 04DA9A40
Copy OK
No errors occurred
End of status report
 
Содержание индексной карты (.CUE)
REM GENRE
REM DATE
REM DISCID B210EC0E
REM COMMENT "ExactAudioCopy v0.99pb4"
PERFORMER "Elliott Sharp - Carbon"
TITLE "Monster Curve"
FILE "01 - Elliott Sharp - Carbon - Geometry .wav" WAVE
TRACK 01 AUDIO
TITLE "Geometry"
PERFORMER "Elliott Sharp - Carbon"
INDEX 01 00:00:00
FILE "02 - Elliott Sharp - Carbon - Iso .wav" WAVE
TRACK 02 AUDIO
TITLE "Iso"
PERFORMER "Elliott Sharp - Carbon"
INDEX 01 00:00:00
FILE "03 - Elliott Sharp - Carbon - Helicopters .wav" WAVE
TRACK 03 AUDIO
TITLE "Helicopters"
PERFORMER "Elliott Sharp - Carbon"
INDEX 01 00:00:00
FILE "04 - Elliott Sharp - Carbon - Inverse Proportions .wav" WAVE
TRACK 04 AUDIO
TITLE "Inverse Proportions"
PERFORMER "Elliott Sharp - Carbon"
INDEX 01 00:00:00
FILE "05 - Elliott Sharp - Carbon - Cia Pope .wav" WAVE
TRACK 05 AUDIO
TITLE "Cia Pope"
PERFORMER "Elliott Sharp - Carbon"
INDEX 01 00:00:00
FILE "06 - Elliott Sharp - Carbon - Intervention .wav" WAVE
TRACK 06 AUDIO
TITLE "Intervention"
PERFORMER "Elliott Sharp - Carbon"
INDEX 01 00:00:00
FILE "07 - Elliott Sharp - Carbon - Last Laugh .wav" WAVE
TRACK 07 AUDIO
TITLE "Last Laugh"
PERFORMER "Elliott Sharp - Carbon"
INDEX 01 00:00:00
TRACK 08 AUDIO
TITLE "Vicious Cycle"
PERFORMER "Elliott Sharp - Carbon"
INDEX 00 02:44:19
FILE "08 - Elliott Sharp - Carbon - Vicious Cycle .wav" WAVE
INDEX 01 00:00:00
FILE "09 - Elliott Sharp - Carbon - Singularity .wav" WAVE
TRACK 09 AUDIO
TITLE "Singularity"
PERFORMER "Elliott Sharp - Carbon"
INDEX 01 00:00:00
FILE "10 - Elliott Sharp - Carbon - Squig .wav" WAVE
TRACK 10 AUDIO
TITLE "Squig"
PERFORMER "Elliott Sharp - Carbon"
INDEX 01 00:00:00
FILE "11 - Elliott Sharp - Carbon - Turbulence .wav" WAVE
TRACK 11 AUDIO
TITLE "Turbulence"
PERFORMER "Elliott Sharp - Carbon"
INDEX 01 00:00:00
FILE "12 - Elliott Sharp - Carbon - Dusts .wav" WAVE
TRACK 12 AUDIO
TITLE "Dusts"
PERFORMER "Elliott Sharp - Carbon"
INDEX 01 00:00:00
FILE "13 - Elliott Sharp - Carbon - Lacunar .wav" WAVE
TRACK 13 AUDIO
TITLE "Lacunar"
PERFORMER "Elliott Sharp - Carbon"
INDEX 01 00:00:00
FILE "14 - Elliott Sharp - Carbon - Not-Yet-Time .wav" WAVE
TRACK 14 AUDIO
TITLE "Not-Yet-Time"
PERFORMER "Elliott Sharp - Carbon"
INDEX 01 00:00:00
 
Лог проверки качества
d:\>d:\aucdtect -d/-m0 d:\zzz\*.wav
auCDtect: CD records authenticity detector, version 0.8.2
Copyright (c) 2004 Oleg Berngardt. All rights reserved.
Copyright (c) 2004 Alexander Djourik. All rights reserved.
------------------------------------------------------------
Processing file: [01. Geometry.wav]
------------------------------------------------------------
This track looks like CDDA with probability 99%
------------------------------------------------------------
Processing file: [02. Iso.wav]
------------------------------------------------------------
This track looks like CDDA with probability 100%
------------------------------------------------------------
Processing file: [03. Helicopters.wav]
------------------------------------------------------------
This track looks like CDDA with probability 100%
------------------------------------------------------------
Processing file: [04. Inverse Proportions.wav]
------------------------------------------------------------
This track looks like CDDA with probability 99%
------------------------------------------------------------
Processing file: [05. Cia Pope.wav]
------------------------------------------------------------
This track looks like CDDA with probability 100%
------------------------------------------------------------
Processing file: [06. Intervention.wav]
------------------------------------------------------------
This track looks like CDDA with probability 100%
------------------------------------------------------------
Processing file: [07. Last Laugh.wav]
------------------------------------------------------------
This track looks like CDDA with probability 100%
------------------------------------------------------------
Processing file: [08. Vicious Cycle.wav]
------------------------------------------------------------
This track looks like CDDA with probability 100%
------------------------------------------------------------
Processing file: [09. Singularity.wav]
------------------------------------------------------------
This track looks like CDDA with probability 100%
------------------------------------------------------------
Processing file: [10. Squig.wav]
------------------------------------------------------------
This track looks like CDDA with probability 100%
------------------------------------------------------------
Processing file: [11. Turbulence.wav]
------------------------------------------------------------
This track looks like CDDA with probability 100%
------------------------------------------------------------
Processing file: [12. Dusts.wav]
------------------------------------------------------------
This track looks like CDDA with probability 100%
------------------------------------------------------------
Processing file: [13. Lacunar.wav]
------------------------------------------------------------
This track looks like CDDA with probability 99%
------------------------------------------------------------
Processing file: [14. Not-Yet-Time.wav]
------------------------------------------------------------
This track looks like CDDA with probability 100%
------------------------------------------------------------
Final Conclusion:
------------------------------------------------------------
These tracks looks like CDDA with probability 100%
 
Скриншот спектра частот
Доп. информация:
 
Album Info
Label:
SST Records
Catalog#:
SST CD 208
Format:
CD, Album
Country:
US
Released:
1988
Engineer - Martin Bisi
Producer - Elliott Sharp
Photography [Cover] - Hopr Martin
Photography [Liner] - Manfred Lang
Selections from the albums: "Carbon" (track 1 to 4), "Six Songs / Marco Polo's Argali" and "Fractal" (track 9 to 14).
Recorded and mixed 1984 to 1987 at B.C. Studio.
 
Состав
Drums - Bobby Previte (tracks: 9, 11, 13, 14) , Charles K. Noyes (tracks: 1 to 4) , Mark E. Miller (tracks: 1 to 4)
Drums, Drums [Electric Talking] - David Linton (tracks: 1 to 4)
Drums, Performer [Slab] - Jim Mussen (tracks: 5 to 9, 11)
Guitar [Doubleneck Guitarbass, Fretless], Saxophone, Voice, Performer [Slab, Pantar, Violinoid], Composed By, Producer - Elliott Sharp
Performer [Slab, Pantar] - Jane Tomkiewicz (tracks: 5 to 8)
Performer [Slab] - Katie O'Looney (tracks: 9 to 11)
Any questions -> support@pro-jazz.com. По всем вопросам пишите -> support@pro-jazz.com
07:19
142
Нет комментариев. Ваш будет первым!