Вы используете незарегистрированную версию компонента "Вкладки"!

Поиск

(Avant-Garde / Experimental) Lindha Kallerdahl - Gold - 2007 [ESP-Disk' ESP4041], FLAC (tracks+.cue) lossless

Треклист:
Lindha Kallerdahl - Gold
Жанр: Avant-Garde / Experimental
Страна-производитель диска: USA
Год издания диска: 2007
Издатель (лейбл): ESP-Disk'
Номер по каталогу: ESP4041
Страна: Sweden
Аудио кодек: FLAC (*.flac)
Тип рипа: tracks+.cue
Битрейт аудио: lossless
Продолжительность: 00:35:50
Источник (релизер): собственный рип с оригинального Audio CD
Наличие сканов в содержимом раздачи: да
Треклист:
1. A King (01:35)
2. Body & Soul (02:46)
3. Gold (04:24)
4. Doj (01:29)
5. Gold Arrow (01:07)
6. Balga (0:51)
7. Ori (05:15)
8. Jean-Loui (03:10)
9. Bless (00:51)
10. All of Me (01:22)
11. Beautiful Love (02:08)
12. Hawaii (01:30)
13. June (01:46)
14. Raw (01:50)
15. Alice (01:59)
16. Blueeye (01:45)
17. Midnight Express (01:42)
Доп. информация:
Musicians:
Lindha Kallerdahl - voice, grand piano and organ
A songs by Lindha Kallerdahl Except "Body & Soul" by Edward Heyman, Robert Sour, Frank Eyton and Johnny Green,
"All of Me" by Gerald Marks and Seymour Simons and "Beautiful Love" by Victor Young and Johnny Mercer
Recorded November 27th and 28th 2006 at Epidemin, Göteborg, Sweden by Johannes Lundberg
Artwork by David Andréas
© 2007 Sydicore Music Ltd.
Lindha Kallerdahl Official Site
Lindha Kallerdahl myspace.com
Lindha Kallerdahl - Gold espdisk.com
Lindha Kallerdahl - Gold allmusic.com
 
... Review ...
It seems only right that Lindha Kallerdahl's music is on ESP, for one could imagine her being around in the 1960s and recording for that label. An adventurous improviser, Kallerdahl has a voice that ranges from haunting to plain annoying, from whispers to screaming. Born and raised in Sweden, Kallerdahl has long been interested in free jazz. Her long tones sometimes sound as if she studied Indian music and her interpretations of lyrics are certainly eccentric; Gold contains one of the oddest versions ever of "Body and Soul." On the other hand, she sounds as if she can hit any note that she wants, and she certainly has a fertile imagination. Kallerdahl occasionally accompanies herself on piano or organ although half of the pieces on Gold are solo vocals. Very open-eared listeners will find this music to be stimulating, although many will think of Gold as being consistently unlistenable and this set seeming to last much longer than 35-and-a-half minutes. But there will be no debate about Kallerdahl's musical courage.
Scott Yanow (AMG)
 
... Press Quotes ...
"Lindha Kallerdahl has a remarkable span in her singing and it really shows on this tremendous solo album. Several songs are only vocals; sometimes she plays expressive piano and organ. A couple of jazz standards for example Body & Soul gets a new costume, mostly new songs by Lindha. She can sing soothing, the voice like pouring water, scatter and shout and, well anything in between. Jazz? Improvisation? Well Lindhamusic very impressive. All the way."
PM JÖNSSON, Göteborgsposten
"Singer Lindha Kalleredahl's music could be placed within the interesting zone between jazz and progressive and improvisation music. She has said that she sees herse11lf as part of a tradition. But as listener you feel that her verbal whirlwind only touch the known references. There is singing but also vocal artistry that touches, and in its own way, link the mist far fetched influences and moments of recognition. "Gold" is actually her first solo album, but the experience she has gained from the collaborations with Anna Lindahl and Sonic Youth amongst others, doesn't pass the ear unnoticed. She is strong, intense and generous. She really wants; it seems, to move the listener. No posing and restrained bullshit. In other words. Lindha Kallerdahl is for real."
Johannes Cornell
 
Scans / 72 dpi


 
EAC extraction logfile from 6. January 2011, 18:07
Exact Audio Copy V0.99 prebeta 4 from 23. January 2008
EAC extraction logfile from 6. January 2011, 18:07
Lindha Kallerdahl / Gold
Used drive : Optiarc DVD RW AD-7260S Adapter: 2 ID: 0
Read mode : Secure
Utilize accurate stream : Yes
Defeat audio cache : Yes
Make use of C2 pointers : No
Read offset correction : 48
Overread into Lead-In and Lead-Out : No
Fill up missing offset samples with silence : Yes
Delete leading and trailing silent blocks : No
Null samples used in CRC calculations : Yes
Used interface : Installed external ASPI interface
Gap handling : Appended to previous track
Used output format : User Defined Encoder
Selected bitrate : 128 kBit/s
Quality : High
Add ID3 tag : No
Command line compressor : D:\Program Files\Exact Audio Copy\Flac\flac.exe
Additional command line options : -8 -V -T "ARTIST=%a" -T "TITLE=%t" -T "ALBUM=%g" -T "DATE=%y" -T "TRACKNUMBER=%n" -T "GENRE=%m" -T "COMMENT=EAC FLAC -8" %s
TOC of the extracted CD
Track | Start | Length | Start sector | End sector
---------------------------------------------------------
1 | 0:00.00 | 1:36.00 | 0 | 7199
2 | 1:36.00 | 2:46.52 | 7200 | 19701
3 | 4:22.52 | 4:24.21 | 19702 | 39522
4 | 8:46.73 | 1:31.47 | 39523 | 46394
5 | 10:18.45 | 1:07.30 | 46395 | 51449
6 | 11:26.00 | 0:53.28 | 51450 | 55452
7 | 12:19.28 | 5:18.08 | 55453 | 79310
8 | 17:37.36 | 3:11.11 | 79311 | 93646
9 | 20:48.47 | 0:50.54 | 93647 | 97450
10 | 21:39.26 | 1:24.49 | 97451 | 103799
11 | 23:04.00 | 2:07.66 | 103800 | 113390
12 | 25:11.66 | 1:30.59 | 113391 | 120199
13 | 26:42.50 | 1:46.72 | 120200 | 128221
14 | 28:29.47 | 1:49.62 | 128222 | 136458
15 | 30:19.34 | 2:01.44 | 136459 | 145577
16 | 32:21.03 | 1:45.56 | 145578 | 153508
17 | 34:06.59 | 1:41.63 | 153509 | 161146
Track 1
Filename G:\TORRENTS.ru_Audio CD\#079_Lindah Kallerdahl - Gold (2007)\Lindah Kallerdahl - Gold (2007)\01 - A King.wav
Pre-gap length 0:00:02.00
Peak level 98.8 %
Track quality 100.0 %
Test CRC FFF1A33A
Copy CRC FFF1A33A
Track not present in AccurateRip database
Copy OK
Track 2
Filename G:\TORRENTS.ru_Audio CD\#079_Lindah Kallerdahl - Gold (2007)\Lindah Kallerdahl - Gold (2007)\02 - Body and Soul.wav
Peak level 98.8 %
Track quality 99.9 %
Test CRC 00EF1A16
Copy CRC 00EF1A16
Track not present in AccurateRip database
Copy OK
Track 3
Filename G:\TORRENTS.ru_Audio CD\#079_Lindah Kallerdahl - Gold (2007)\Lindah Kallerdahl - Gold (2007)\03 - Gold.wav
Peak level 98.8 %
Track quality 100.0 %
Test CRC 3B728211
Copy CRC 3B728211
Track not present in AccurateRip database
Copy OK
Track 4
Filename G:\TORRENTS.ru_Audio CD\#079_Lindah Kallerdahl - Gold (2007)\Lindah Kallerdahl - Gold (2007)\04 - Doj.wav
Peak level 85.5 %
Track quality 99.8 %
Test CRC 5166B876
Copy CRC 5166B876
Track not present in AccurateRip database
Copy OK
Track 5
Filename G:\TORRENTS.ru_Audio CD\#079_Lindah Kallerdahl - Gold (2007)\Lindah Kallerdahl - Gold (2007)\05 - Gold Arrow.wav
Peak level 98.8 %
Track quality 99.8 %
Test CRC 8CAB7CB1
Copy CRC 8CAB7CB1
Track not present in AccurateRip database
Copy OK
Track 6
Filename G:\TORRENTS.ru_Audio CD\#079_Lindah Kallerdahl - Gold (2007)\Lindah Kallerdahl - Gold (2007)\06 - Balga.wav
Peak level 98.8 %
Track quality 100.0 %
Test CRC 5054500B
Copy CRC 5054500B
Track not present in AccurateRip database
Copy OK
Track 7
Filename G:\TORRENTS.ru_Audio CD\#079_Lindah Kallerdahl - Gold (2007)\Lindah Kallerdahl - Gold (2007)\07 - Ori.wav
Peak level 84.4 %
Track quality 99.9 %
Test CRC 13E59852
Copy CRC 13E59852
Track not present in AccurateRip database
Copy OK
Track 8
Filename G:\TORRENTS.ru_Audio CD\#079_Lindah Kallerdahl - Gold (2007)\Lindah Kallerdahl - Gold (2007)\08 - Jean-Loui.wav
Peak level 98.8 %
Track quality 100.0 %
Test CRC D805C560
Copy CRC D805C560
Track not present in AccurateRip database
Copy OK
Track 9
Filename G:\TORRENTS.ru_Audio CD\#079_Lindah Kallerdahl - Gold (2007)\Lindah Kallerdahl - Gold (2007)\09 - Bless.wav
Peak level 98.8 %
Track quality 100.0 %
Test CRC 7A84CA3C
Copy CRC 7A84CA3C
Track not present in AccurateRip database
Copy OK
Track 10
Filename G:\TORRENTS.ru_Audio CD\#079_Lindah Kallerdahl - Gold (2007)\Lindah Kallerdahl - Gold (2007)\10 - All of me.wav
Peak level 98.8 %
Track quality 99.8 %
Test CRC 5057469C
Copy CRC 5057469C
Track not present in AccurateRip database
Copy OK
Track 11
Filename G:\TORRENTS.ru_Audio CD\#079_Lindah Kallerdahl - Gold (2007)\Lindah Kallerdahl - Gold (2007)\11 - Beautiful Love.wav
Peak level 98.8 %
Track quality 100.0 %
Test CRC 9943D097
Copy CRC 9943D097
Track not present in AccurateRip database
Copy OK
Track 12
Filename G:\TORRENTS.ru_Audio CD\#079_Lindah Kallerdahl - Gold (2007)\Lindah Kallerdahl - Gold (2007)\12 - Hawaii.wav
Peak level 74.6 %
Track quality 100.0 %
Test CRC 9FC2B576
Copy CRC 9FC2B576
Track not present in AccurateRip database
Copy OK
Track 13
Filename G:\TORRENTS.ru_Audio CD\#079_Lindah Kallerdahl - Gold (2007)\Lindah Kallerdahl - Gold (2007)\13 - June.wav
Peak level 78.9 %
Track quality 100.0 %
Test CRC D2D0A26A
Copy CRC D2D0A26A
Track not present in AccurateRip database
Copy OK
Track 14
Filename G:\TORRENTS.ru_Audio CD\#079_Lindah Kallerdahl - Gold (2007)\Lindah Kallerdahl - Gold (2007)\14 - Raw.wav
Peak level 98.8 %
Track quality 100.0 %
Test CRC 67BE4BD9
Copy CRC 67BE4BD9
Track not present in AccurateRip database
Copy OK
Track 15
Filename G:\TORRENTS.ru_Audio CD\#079_Lindah Kallerdahl - Gold (2007)\Lindah Kallerdahl - Gold (2007)\15 - Alice.wav
Peak level 39.0 %
Track quality 100.0 %
Test CRC 57DE251A
Copy CRC 57DE251A
Track not present in AccurateRip database
Copy OK
Track 16
Filename G:\TORRENTS.ru_Audio CD\#079_Lindah Kallerdahl - Gold (2007)\Lindah Kallerdahl - Gold (2007)\16 - Blueeye.wav
Peak level 98.8 %
Track quality 100.0 %
Test CRC 1953F3AF
Copy CRC 1953F3AF
Track not present in AccurateRip database
Copy OK
Track 17
Filename G:\TORRENTS.ru_Audio CD\#079_Lindah Kallerdahl - Gold (2007)\Lindah Kallerdahl - Gold (2007)\17 - Midnight Express.wav
Peak level 98.8 %
Track quality 100.0 %
Test CRC FDBB4509
Copy CRC FDBB4509
Track not present in AccurateRip database
Copy OK
None of the tracks are present in the AccurateRip database
No errors occurred
End of status report
 
Содержание индексной карты (.CUE)
REM GENRE Avantgarde
REM DATE 2007
REM DISCID D0086411
REM COMMENT "ExactAudioCopy v0.99pb4"
PERFORMER "Lindha Kallerdahl"
TITLE "Gold"
FILE "01 - A King.wav" WAVE
TRACK 01 AUDIO
TITLE "A King"
PERFORMER "Lindha Kallerdahl"
INDEX 01 00:00:00
FILE "02 - Body and Soul.wav" WAVE
TRACK 02 AUDIO
TITLE " Body and Soul"
PERFORMER "Lindha Kallerdahl"
INDEX 01 00:00:00
FILE "03 - Gold.wav" WAVE
TRACK 03 AUDIO
TITLE "Gold"
PERFORMER "Lindha Kallerdahl"
INDEX 01 00:00:00
FILE "04 - Doj.wav" WAVE
TRACK 04 AUDIO
TITLE "Doj"
PERFORMER "Lindha Kallerdahl"
INDEX 01 00:00:00
FILE "05 - Gold Arrow.wav" WAVE
TRACK 05 AUDIO
TITLE "Gold Arrow"
PERFORMER "Lindha Kallerdahl"
INDEX 01 00:00:00
FILE "06 - Balga.wav" WAVE
TRACK 06 AUDIO
TITLE "Balga"
PERFORMER "Lindha Kallerdahl"
INDEX 01 00:00:00
FILE "07 - Ori.wav" WAVE
TRACK 07 AUDIO
TITLE "Ori"
PERFORMER "Lindha Kallerdahl"
INDEX 01 00:00:00
FILE "08 - Jean-Loui.wav" WAVE
TRACK 08 AUDIO
TITLE "Jean-Loui"
PERFORMER "Lindha Kallerdahl"
INDEX 01 00:00:00
FILE "09 - Bless.wav" WAVE
TRACK 09 AUDIO
TITLE "Bless"
PERFORMER "Lindha Kallerdahl"
INDEX 01 00:00:00
FILE "10 - All of me.wav" WAVE
TRACK 10 AUDIO
TITLE "All of me"
PERFORMER "Lindha Kallerdahl"
INDEX 01 00:00:00
FILE "11 - Beautiful Love.wav" WAVE
TRACK 11 AUDIO
TITLE "Beautiful Love"
PERFORMER "Lindha Kallerdahl"
INDEX 01 00:00:00
FILE "12 - Hawaii.wav" WAVE
TRACK 12 AUDIO
TITLE "Hawaii"
PERFORMER "Lindha Kallerdahl"
INDEX 01 00:00:00
FILE "13 - June.wav" WAVE
TRACK 13 AUDIO
TITLE "June"
PERFORMER "Lindha Kallerdahl"
INDEX 01 00:00:00
FILE "14 - Raw.wav" WAVE
TRACK 14 AUDIO
TITLE "Raw"
PERFORMER "Lindha Kallerdahl"
INDEX 01 00:00:00
FILE "15 - Alice.wav" WAVE
TRACK 15 AUDIO
TITLE "Alice"
PERFORMER "Lindha Kallerdahl"
INDEX 01 00:00:00
FILE "16 - Blueeye.wav" WAVE
TRACK 16 AUDIO
TITLE "Blueeye"
PERFORMER "Lindha Kallerdahl"
INDEX 01 00:00:00
FILE "17 - Midnight Express.wav" WAVE
TRACK 17 AUDIO
TITLE "Midnight Express"
PERFORMER "Lindha Kallerdahl"
INDEX 01 00:00:00
Any questions -> support@pro-jazz.com. По всем вопросам пишите -> support@pro-jazz.com
07:17
185
Нет комментариев. Ваш будет первым!