Вы используете незарегистрированную версию компонента "Вкладки"!

Поиск

(Free Jazz, Modern Creative, Soul Note) Tom Varner (w/ Ellery Eskelin, Drew Gress, Tom Rainey) - Martian Heartache - 1997, FLAC (tracks+.cue), lossless

Издатель (лейбл):
Треклист:
Tom Varner / Martian Heartache
Жанр: Free Jazz, Modern Creative, Soul Note
Страна-производитель диска: Italy
Год издания: 1997
Издатель (лейбл): Soul Note
Номер по каталогу: 121286-2
Страна: US
Аудиокодек: FLAC (*.flac)
Тип рипа: tracks+.cue
Битрейт аудио: lossless
Продолжительность: 71:27
Источник (релизер): свой фирменный диск
Наличие сканов в содержимом раздачи:
Треклист:
1 Nuke 'em Tony 3:00
2 Keep It Up 7:45
3 Martian Affirmation 6:04
4 Venus With a Syringe 3:42
5 Precarious Dog 0:54
6 Isaac Has a Vision on the Subway 6:14
7 The Quick and the Dead 4:37
8 Send Me a Probe 0:49
9 Tough Luck 5:42
10 Betsy Says Yes 1:17
11 Eva Etc. 10:05
12 Anxiety All the Time 0:36
13 Learn Something! 5:30
14 Small Cry Big Laugh 11:06
15 Lady Gay 3:22
 
Лог создания рипа
Exact Audio Copy V1.0 beta 3 from 29. August 2011
EAC extraction logfile from 18. August 2013, 14:44
Tom Varner / Martian Heartache
Used drive : PIONEER DVD-RW DVR-115D Adapter: 0 ID: 0
Read mode : Secure
Utilize accurate stream : Yes
Defeat audio cache : Yes
Make use of C2 pointers : No
Read offset correction : 48
Overread into Lead-In and Lead-Out : No
Fill up missing offset samples with silence : Yes
Delete leading and trailing silent blocks : No
Null samples used in CRC calculations : Yes
Used interface : Installed external ASPI interface
Gap handling : Appended to previous track
Used output format : User Defined Encoder
Selected bitrate : 896 kBit/s
Quality : High
Add ID3 tag : No
Command line compressor : C:\Program Files\Exact Audio Copy\FLAC\FLAC.EXE
Additional command line options : -6 -V -T "ARTIST=%artist%" -T "TITLE=%title%" -T "ALBUM=%albumtitle%" -T "DATE=%year%" -T "TRACKNUMBER=%tracknr%" -T "GENRE=%genre%" -T "COMMENT=%comment%" -T "BAND=%albuminterpret%" -T "COMPOSER=%composer%" %haslyrics%--tag-from-file=LYRICS="%lyricsfile%"%haslyrics% -T "DISCNUMBER=%cdnumber%" -T "TOTALDISCS=%totalcds%" -T "TOTALTRACKS=%numtracks%" %hascover%--picture="%coverfile%"%hascover% %source% -o %dest%
TOC of the extracted CD
Track | Start | Length | Start sector | End sector
---------------------------------------------------------
1 | 0:00.00 | 3:02.12 | 0 | 13661
2 | 3:02.12 | 7:46.15 | 13662 | 48626
3 | 10:48.27 | 6:08.25 | 48627 | 76251
4 | 16:56.52 | 3:45.48 | 76252 | 93174
5 | 20:42.25 | 0:58.47 | 93175 | 97571
6 | 21:40.72 | 6:16.48 | 97572 | 125819
7 | 27:57.45 | 4:39.30 | 125820 | 146774
8 | 32:37.00 | 0:50.35 | 146775 | 150559
9 | 33:27.35 | 5:44.55 | 150560 | 176414
10 | 39:12.15 | 1:18.40 | 176415 | 182304
11 | 40:30.55 | 10:09.15 | 182305 | 227994
12 | 50:39.70 | 0:40.02 | 227995 | 230996
13 | 51:19.72 | 5:30.28 | 230997 | 255774
14 | 56:50.25 | 11:13.12 | 255775 | 306261
15 | 68:03.37 | 3:24.08 | 306262 | 321569
Track 1
Filename D:\zzz\01 - Nuke 'Em Tony.wav
Pre-gap length 0:00:02.00
Peak level 88.0 %
Extraction speed 4.5 X
Track quality 100.0 %
Test CRC 4D3752C6
Copy CRC 4D3752C6
Accurately ripped (confidence 1) [53C447CD] (AR v2)
Copy OK
Track 2
Filename D:\zzz\02 - Keep It Up.wav
Peak level 96.4 %
Extraction speed 5.6 X
Track quality 100.0 %
Test CRC A11E3CB8
Copy CRC A11E3CB8
Accurately ripped (confidence 1) [E34CB95A] (AR v2)
Copy OK
Track 3
Filename D:\zzz\03 - Martian Affirmation.wav
Pre-gap length 0:00:00.01
Peak level 91.9 %
Extraction speed 6.2 X
Track quality 100.0 %
Test CRC F4D464D8
Copy CRC F4D464D8
Accurately ripped (confidence 1) [8BEBFD75] (AR v2)
Copy OK
Track 4
Filename D:\zzz\04 - Yenus With A Syringe.wav
Peak level 60.9 %
Extraction speed 6.2 X
Track quality 100.0 %
Test CRC 84261E1C
Copy CRC 84261E1C
Accurately ripped (confidence 1) [A54FC784] (AR v2)
Copy OK
Track 5
Filename D:\zzz\05 - Precarious Dog.wav
Peak level 59.2 %
Extraction speed 4.6 X
Track quality 100.0 %
Test CRC C30EF174
Copy CRC C30EF174
Accurately ripped (confidence 1) [B70E783B] (AR v2)
Copy OK
Track 6
Filename D:\zzz\06 - Isaac Has A Vision On The Subway.wav
Peak level 96.1 %
Extraction speed 7.0 X
Track quality 100.0 %
Test CRC 31D417A9
Copy CRC 31D417A9
Accurately ripped (confidence 1) [CDC937A7] (AR v2)
Copy OK
Track 7
Filename D:\zzz\07 - The Quick And The Dead.wav
Peak level 53.4 %
Extraction speed 7.2 X
Track quality 100.0 %
Test CRC 8CAD1014
Copy CRC 8CAD1014
Accurately ripped (confidence 1) [0246E258] (AR v2)
Copy OK
Track 8
Filename D:\zzz\08 - Send Me A Probe.wav
Peak level 88.1 %
Extraction speed 3.4 X
Track quality 99.7 %
Test CRC B939EEDC
Copy CRC B939EEDC
Accurately ripped (confidence 1) [503F5A78] (AR v2)
Copy OK
Track 9
Filename D:\zzz\09 - Tough Luck.wav
Peak level 89.8 %
Extraction speed 7.7 X
Track quality 100.0 %
Test CRC F8C72277
Copy CRC F8C72277
Accurately ripped (confidence 1) [563B561F] (AR v2)
Copy OK
Track 10
Filename D:\zzz\10 - Betsy Says Yes.wav
Peak level 43.6 %
Extraction speed 6.0 X
Track quality 100.0 %
Test CRC 103645F6
Copy CRC 103645F6
Accurately ripped (confidence 1) [4D1E96D0] (AR v2)
Copy OK
Track 11
Filename D:\zzz\11 - Eva Etc..wav
Peak level 99.9 %
Extraction speed 8.2 X
Track quality 99.9 %
Test CRC AB04AB62
Copy CRC AB04AB62
Accurately ripped (confidence 1) [82F5F79A] (AR v2)
Copy OK
Track 12
Filename D:\zzz\12 - Anxiety All The Time.wav
Peak level 40.2 %
Extraction speed 5.0 X
Track quality 100.0 %
Test CRC 299C44AC
Copy CRC 299C44AC
Accurately ripped (confidence 1) [23F440B5] (AR v2)
Copy OK
Track 13
Filename D:\zzz\13 - Learn Something!.wav
Peak level 97.3 %
Extraction speed 8.6 X
Track quality 100.0 %
Test CRC CDD63B8A
Copy CRC CDD63B8A
Accurately ripped (confidence 1) [BBF5ED66] (AR v2)
Copy OK
Track 14
Filename D:\zzz\14 - Small Cry Big Laugh.wav
Peak level 92.5 %
Extraction speed 9.6 X
Track quality 100.0 %
Test CRC 9046DC55
Copy CRC 9046DC55
Accurately ripped (confidence 1) [876FA322] (AR v2)
Copy OK
Track 15
Filename D:\zzz\15 - Lady Gay.wav
Peak level 53.5 %
Extraction speed 8.9 X
Track quality 100.0 %
Test CRC 5C66328D
Copy CRC 5C66328D
Accurately ripped (confidence 1) [874D9147] (AR v2)
Copy OK
All tracks accurately ripped
No errors occurred
End of status report
==== Log checksum 413E97C297D5C9ABA15E7CF4CF2ED3BDDB90671427A3681CE9937534D2371610 ====
 
Содержание индексной карты (.CUE)
REM GENRE "Contemporary Jazz"
REM DATE 1997
REM DISCID B710BF0F
REM COMMENT "ExactAudioCopy v1.0b3"
PERFORMER "Tom Varner"
TITLE "Martian Heartache"
FILE "01 - Nuke 'Em Tony.wav" WAVE
TRACK 01 AUDIO
TITLE "Nuke 'Em Tony"
PERFORMER "Tom Varner"
INDEX 01 00:00:00
FILE "02 - Keep It Up.wav" WAVE
TRACK 02 AUDIO
TITLE "Keep It Up"
PERFORMER "Tom Varner"
INDEX 01 00:00:00
TRACK 03 AUDIO
TITLE "Martian Affirmation"
PERFORMER "Tom Varner"
INDEX 00 07:46:14
FILE "03 - Martian Affirmation.wav" WAVE
INDEX 01 00:00:00
FILE "04 - Yenus With A Syringe.wav" WAVE
TRACK 04 AUDIO
TITLE "Yenus With A Syringe"
PERFORMER "Tom Varner"
INDEX 01 00:00:00
FILE "05 - Precarious Dog.wav" WAVE
TRACK 05 AUDIO
TITLE "Precarious Dog"
PERFORMER "Tom Varner"
INDEX 01 00:00:00
FILE "06 - Isaac Has A Vision On The Subway.wav" WAVE
TRACK 06 AUDIO
TITLE "Isaac Has A Vision On The Subway"
PERFORMER "Tom Varner"
INDEX 01 00:00:00
FILE "07 - The Quick And The Dead.wav" WAVE
TRACK 07 AUDIO
TITLE "The Quick And The Dead"
PERFORMER "Tom Varner"
INDEX 01 00:00:00
FILE "08 - Send Me A Probe.wav" WAVE
TRACK 08 AUDIO
TITLE "Send Me A Probe"
PERFORMER "Tom Varner"
INDEX 01 00:00:00
FILE "09 - Tough Luck.wav" WAVE
TRACK 09 AUDIO
TITLE "Tough Luck"
PERFORMER "Tom Varner"
INDEX 01 00:00:00
FILE "10 - Betsy Says Yes.wav" WAVE
TRACK 10 AUDIO
TITLE "Betsy Says Yes"
PERFORMER "Tom Varner"
INDEX 01 00:00:00
FILE "11 - Eva Etc..wav" WAVE
TRACK 11 AUDIO
TITLE "Eva Etc."
PERFORMER "Tom Varner"
INDEX 01 00:00:00
FILE "12 - Anxiety All The Time.wav" WAVE
TRACK 12 AUDIO
TITLE "Anxiety All The Time"
PERFORMER "Tom Varner"
INDEX 01 00:00:00
FILE "13 - Learn Something!.wav" WAVE
TRACK 13 AUDIO
TITLE "Learn Something!"
PERFORMER "Tom Varner"
INDEX 01 00:00:00
FILE "14 - Small Cry Big Laugh.wav" WAVE
TRACK 14 AUDIO
TITLE "Small Cry Big Laugh"
PERFORMER "Tom Varner"
INDEX 01 00:00:00
FILE "15 - Lady Gay.wav" WAVE
TRACK 15 AUDIO
TITLE "Lady Gay"
PERFORMER "Tom Varner"
INDEX 01 00:00:00
 
Лог проверки качества
d:\>d:\aucdtect -d/-m0 d:\zzz\*.wav
auCDtect: CD records authenticity detector, version 0.8.2
Copyright (c) 2004 Oleg Berngardt. All rights reserved.
Copyright (c) 2004 Alexander Djourik. All rights reserved.
------------------------------------------------------------
Processing file: [01. Nuke 'Em Tony.wav]
------------------------------------------------------------
This track looks like CDDA with probability 100%
------------------------------------------------------------
Processing file: [02. Keep It Up.wav]
------------------------------------------------------------
This track looks like CDDA with probability 100%
------------------------------------------------------------
Processing file: [03. Martian Affirmation.wav]
------------------------------------------------------------
This track looks like CDDA with probability 100%
------------------------------------------------------------
Processing file: [04. Yenus With A Syringe.wav]
------------------------------------------------------------
This track looks like CDDA with probability 100%
------------------------------------------------------------
Processing file: [05. Precarious Dog.wav]
------------------------------------------------------------
This track looks like MPEG with probability 93%
------------------------------------------------------------
Processing file: [06. Isaac Has A Vision On The Subway.wav]
------------------------------------------------------------
This track looks like CDDA with probability 100%
------------------------------------------------------------
Processing file: [07. The Quick And The Dead.wav]
------------------------------------------------------------
This track looks like CDDA with probability 62%
------------------------------------------------------------
Processing file: [08. Send Me A Probe.wav]
------------------------------------------------------------
This track looks like CDDA with probability 99%
------------------------------------------------------------
Processing file: [09. Tough Luck.wav]
------------------------------------------------------------
This track looks like CDDA with probability 100%
------------------------------------------------------------
Processing file: [10. Betsy Says Yes.wav]
------------------------------------------------------------
This track looks like CDDA with probability 85%
------------------------------------------------------------
Processing file: [11. Eva Etc..wav]
------------------------------------------------------------
This track looks like CDDA with probability 100%
------------------------------------------------------------
Processing file: [12. Anxiety All The Time.wav]
------------------------------------------------------------
This track looks like CDDA with probability 100%
------------------------------------------------------------
Processing file: [13. Learn Something!.wav]
------------------------------------------------------------
This track looks like CDDA with probability 100%
------------------------------------------------------------
Processing file: [14. Small Cry Big Laugh.wav]
------------------------------------------------------------
This track looks like CDDA with probability 100%
------------------------------------------------------------
Processing file: [15. Lady Gay.wav]
------------------------------------------------------------
This track looks like CDDA with probability 99%
------------------------------------------------------------
Final Conclusion:
------------------------------------------------------------
These tracks looks like CDDA with probability 100%
Доп. информация:
 
Album Info & AMG Review
Recorded on March 5 & 6, 1996 at Tedesco Studios, New Jersey
Recording & mixing engineer: Jon Rosenberg
Pre-mastered at Audio Art, New York
Engineer: Hal Chaney
Mastered at PhonoComp, Tribiano - MI
Engineer: Aldo Borrelli
Producer: Tom Varner
Executive Producer: Flavio Bonandrini
Production coordinator: Frank Tafuri
Photography: Rob Whitcomb
Cover design: Tom Varner
In reviewing this album, a critic might trot out some line about there not being many jazz French horn players, but truth be told, there just aren't many jazz musicians like Tom Varner, period. Varner is the rarest of birds: a jazz composer/instrumentalist with an experimental streak who places at least as much emphasis (and expends as much effort) on the craft of composition as he does improvisation. Varner is a fine soloist no doubt, taming the harmonically precarious horn as few other contemporary jazz musicians have. But more interesting is the attention he pays to the nuance of composition. Varner's tunes aren't just jumping-off points for jamming; they are rather full-fledged contexts that not only frame the improvised elements, but function as a coherent whole unto themselves. It takes a special kind of musician to play music of this type -- someone who can interpret the will of the composer as well as contribute something of himself. In alto saxophonist Ed Jackson, tenor saxophonist Ellery Eskelin, bassist Drew Gress, and drummer Tom Rainey Varner has made splendid choices. So many experimental (or free, or avant-garde) jazz albums have a leader's name pasted on the top, not because he had a vision for the music, but because he was the one who got the record date together. About this music there can be no mistake; as inspired as the overall playing is here, the shape and substance of this music was determined by the man with his name on top. This album is one of the finest manifestations of the experimental impulse in jazz to be heard in some time.
 
Состав
Tom Varner: french horn
Ed Jackson: alto saxophone
Ellery Eskelin: tenor saxophone
Drew Gress: bass
Tom Rainey: drums
with special guests Pete McCann: guitar (2,5,11) and Dominique Eade: voice (15)
По всем вопросам пишите личное сообщение пользователю M0p94ok.
17:13
230
Нет комментариев. Ваш будет первым!