Вы используете незарегистрированную версию компонента "Вкладки"!

Поиск

(Free Improvisation, Avant-Garde Jazz, FMR) Vanishing Pictures - Lit As From Within - 2003, FLAC (tracks+.cue), lossless

(Free Improvisation, Avant-Garde Jazz, FMR) Vanishing Pictures - Lit As From Within - 2003, FLAC (tracks+.cue), lossless
Треклист:
Vanishing Pictures / Lit As From Within
Жанр: Free Improvisation, Avant-Garde Jazz, FMR
Страна-производитель диска: UK
Год издания: 2003
Издатель (лейбл): FMR Records
Номер по каталогу: FMRCD113-i0303
Страна: Netherlands, UK
Аудиокодек: FLAC (*.flac)
Тип рипа: tracks+.cue
Битрейт аудио: lossless
Продолжительность: 57:10
Источник (релизер): свой фирменный диск
Наличие сканов в содержимом раздачи:
Треклист:
1 Lunar Profession 6:03
2 Lit As From Within 6:59
3 Jazzy Glitter 6:05
4 Events Disproved His Calculations 10:44
5 Spalanzani 5:17
6 Because It's Travel 5:37
7 With Hidden Noise 5:57
8 Hit With Noise 9:57
 
Лог создания рипа
Exact Audio Copy V1.0 beta 3 from 29. August 2011
EAC extraction logfile from 18. August 2013, 11:59
Vanishing Pictures / Lit As From Within
Used drive : PIONEER DVD-RW DVR-115D Adapter: 0 ID: 0
Read mode : Secure
Utilize accurate stream : Yes
Defeat audio cache : Yes
Make use of C2 pointers : No
Read offset correction : 48
Overread into Lead-In and Lead-Out : No
Fill up missing offset samples with silence : Yes
Delete leading and trailing silent blocks : No
Null samples used in CRC calculations : Yes
Used interface : Installed external ASPI interface
Gap handling : Appended to previous track
Used output format : User Defined Encoder
Selected bitrate : 896 kBit/s
Quality : High
Add ID3 tag : No
Command line compressor : C:\Program Files\Exact Audio Copy\FLAC\FLAC.EXE
Additional command line options : -6 -V -T "ARTIST=%artist%" -T "TITLE=%title%" -T "ALBUM=%albumtitle%" -T "DATE=%year%" -T "TRACKNUMBER=%tracknr%" -T "GENRE=%genre%" -T "COMMENT=%comment%" -T "BAND=%albuminterpret%" -T "COMPOSER=%composer%" %haslyrics%--tag-from-file=LYRICS="%lyricsfile%"%haslyrics% -T "DISCNUMBER=%cdnumber%" -T "TOTALDISCS=%totalcds%" -T "TOTALTRACKS=%numtracks%" %hascover%--picture="%coverfile%"%hascover% %source% -o %dest%
TOC of the extracted CD
Track | Start | Length | Start sector | End sector
---------------------------------------------------------
1 | 0:00.00 | 6:09.00 | 0 | 27674
2 | 6:09.00 | 7:02.00 | 27675 | 59324
3 | 13:11.00 | 6:08.00 | 59325 | 86924
4 | 19:19.00 | 10:48.10 | 86925 | 135534
5 | 30:07.10 | 5:21.00 | 135535 | 159609
6 | 35:28.10 | 5:44.04 | 159610 | 185413
7 | 41:12.14 | 6:00.00 | 185414 | 212413
8 | 47:12.14 | 9:58.00 | 212414 | 257263
Track 1
Filename D:\zzz\01 - Lunar Profession.wav
Pre-gap length 0:00:02.00
Peak level 87.4 %
Extraction speed 4.9 X
Track quality 100.0 %
Test CRC 0969176E
Copy CRC 0969176E
Track not present in AccurateRip database
Copy OK
Track 2
Filename D:\zzz\02 - Lit As From Within.wav
Pre-gap length 0:00:05.00
Peak level 61.9 %
Extraction speed 5.6 X
Track quality 100.0 %
Test CRC 9FDC1C9F
Copy CRC 9FDC1C9F
Track not present in AccurateRip database
Copy OK
Track 3
Filename D:\zzz\03 - Jazzy Glitter.wav
Pre-gap length 0:00:02.00
Peak level 84.2 %
Extraction speed 6.2 X
Track quality 100.0 %
Test CRC 8E1F6593
Copy CRC 8E1F6593
Track not present in AccurateRip database
Copy OK
Track 4
Filename D:\zzz\04 - Events Disproved His Calculations.wav
Pre-gap length 0:00:02.00
Peak level 83.9 %
Extraction speed 7.1 X
Track quality 100.0 %
Test CRC 43A136C1
Copy CRC 43A136C1
Track not present in AccurateRip database
Copy OK
Track 5
Filename D:\zzz\05 - Spalanzani.wav
Pre-gap length 0:00:04.00
Peak level 75.1 %
Extraction speed 6.6 X
Track quality 99.9 %
Test CRC BC2CE5CC
Copy CRC BC2CE5CC
Track not present in AccurateRip database
Copy OK
Track 6
Filename D:\zzz\06 - Because It's Travel.wav
Pre-gap length 0:00:03.00
Peak level 77.8 %
Extraction speed 7.7 X
Track quality 100.0 %
Test CRC B2ACD636
Copy CRC B2ACD636
Track not present in AccurateRip database
Copy OK
Track 7
Filename D:\zzz\07 - With Hidden Noise.wav
Pre-gap length 0:00:06.00
Peak level 99.9 %
Extraction speed 8.0 X
Track quality 100.0 %
Test CRC 075FA134
Copy CRC 075FA134
Track not present in AccurateRip database
Copy OK
Track 8
Filename D:\zzz\08 - Hit With Noise.wav
Pre-gap length 0:00:02.00
Peak level 86.1 %
Extraction speed 8.8 X
Track quality 100.0 %
Test CRC F54AFE9F
Copy CRC F54AFE9F
Track not present in AccurateRip database
Copy OK
None of the tracks are present in the AccurateRip database
No errors occurred
End of status report
==== Log checksum 3FF91FEC6A0FDC0D5A0735A17FFE864B3F2E4291C3F84543D7B64CDFEDDA2947 ====
 
Содержание индексной карты (.CUE)
REM GENRE "Avant-Garde Jazz"
REM DATE 2003
REM DISCID 630D6608
REM COMMENT "ExactAudioCopy v1.0b3"
PERFORMER "Vanishing Pictures"
TITLE "Lit As From Within"
FILE "01 - Lunar Profession.wav" WAVE
TRACK 01 AUDIO
TITLE "Lunar Profession"
PERFORMER "Vanishing Pictures"
INDEX 01 00:00:00
TRACK 02 AUDIO
TITLE "Lit As From Within"
PERFORMER "Vanishing Pictures"
INDEX 00 06:04:00
FILE "02 - Lit As From Within.wav" WAVE
INDEX 01 00:00:00
TRACK 03 AUDIO
TITLE "Jazzy Glitter"
PERFORMER "Vanishing Pictures"
INDEX 00 07:00:00
FILE "03 - Jazzy Glitter.wav" WAVE
INDEX 01 00:00:00
TRACK 04 AUDIO
TITLE "Events Disproved His Calculations"
PERFORMER "Vanishing Pictures"
INDEX 00 06:06:00
FILE "04 - Events Disproved His Calculations.wav" WAVE
INDEX 01 00:00:00
TRACK 05 AUDIO
TITLE "Spalanzani"
PERFORMER "Vanishing Pictures"
INDEX 00 10:44:10
FILE "05 - Spalanzani.wav" WAVE
INDEX 01 00:00:00
TRACK 06 AUDIO
TITLE "Because It's Travel"
PERFORMER "Vanishing Pictures"
INDEX 00 05:18:00
FILE "06 - Because It's Travel.wav" WAVE
INDEX 01 00:00:00
TRACK 07 AUDIO
TITLE "With Hidden Noise"
PERFORMER "Vanishing Pictures"
INDEX 00 05:38:04
FILE "07 - With Hidden Noise.wav" WAVE
INDEX 01 00:00:00
TRACK 08 AUDIO
TITLE "Hit With Noise"
PERFORMER "Vanishing Pictures"
INDEX 00 05:58:00
FILE "08 - Hit With Noise.wav" WAVE
INDEX 01 00:00:00
 
Лог проверки качества
d:\>d:\aucdtect -d/-m0 d:\zzz\*.wav
auCDtect: CD records authenticity detector, version 0.8.2
Copyright (c) 2004 Oleg Berngardt. All rights reserved.
Copyright (c) 2004 Alexander Djourik. All rights reserved.
------------------------------------------------------------
Processing file: [01. Lunar Profession.wav]
------------------------------------------------------------
This track looks like CDDA with probability 100%
------------------------------------------------------------
Processing file: [02. Lit As From Within.wav]
------------------------------------------------------------
This track looks like CDDA with probability 100%
------------------------------------------------------------
Processing file: [03. Jazzy Glitter.wav]
------------------------------------------------------------
This track looks like CDDA with probability 100%
------------------------------------------------------------
Processing file: [04. Events Disproved His Calculations.wav]
------------------------------------------------------------
This track looks like CDDA with probability 100%
------------------------------------------------------------
Processing file: [05. Spalanzani.wav]
------------------------------------------------------------
This track looks like CDDA with probability 99%
------------------------------------------------------------
Processing file: [06. Because It's Travel.wav]
------------------------------------------------------------
This track looks like CDDA with probability 100%
------------------------------------------------------------
Processing file: [07. With Hidden Noise.wav]
------------------------------------------------------------
This track looks like CDDA with probability 100%
------------------------------------------------------------
Processing file: [08. Hit With Noise.wav]
------------------------------------------------------------
This track looks like CDDA with probability 100%
------------------------------------------------------------
Final Conclusion:
------------------------------------------------------------
These tracks looks like CDDA with probability 100%
 
Состав
Dirk Wachtelaer: electronics, ac. drums
Stevie Wishart: live electronics, voice, hurdy gurdy
Paul Lytton: live electronics
Piet Verbist: double bass
Pierre Bastien: violin machine (5), javanese rebab (6), trumpet (8)
Jim Denley: bass flute, sax, voice
Steve Hubback: metal percussion & gongs
Michael Weilacher: oil drums, zither, bottles
DJ Grazzhoppa: turntables, beat
Gerrit Valckenaers: sampler, bass clarinet, Indian pump organ
Recorded and mixed in 2001 at Studio At The Crossroads
По всем вопросам пишите личное сообщение пользователю M0p94ok.
17:12
225
Нет комментариев. Ваш будет первым!