Вы используете незарегистрированную версию компонента "Вкладки"!

Поиск

(Free Jazz, Ethnic Jazz, Soul Note) Adam Rudolph's Moving Pictures - Skyway - 1994, FLAC (tracks+.cue), lossless

(Free Jazz, Ethnic Jazz, Soul Note) Adam Rudolph's Moving Pictures - Skyway - 1994, FLAC (tracks+.cue), lossless
Издатель (лейбл):
Треклист:
Adam Rudolph's Moving Pictures / Skyway
Жанр: Free Jazz, Ethnic Jazz, Soul Note
Страна-производитель диска: Italy
Год издания: 1994
Издатель (лейбл): Soul Note
Номер по каталогу: 121269-2
Страна: US
Аудиокодек: FLAC (*.flac)
Тип рипа: tracks+.cue
Битрейт аудио: lossless
Продолжительность: 56:29
Источник (релизер): свой фирменный диск
Наличие сканов в содержимом раздачи:
Треклист:
1 Oshogbo 6:02
2 Beloved 5:32
3 Terra Incognito 3:22
4 The Earth Spins Faster Than Words 5:14
5 Impulsion 5:05
6 Dreaming Of The Skyway 7:12
7 Baraka 4:38
8 The Other Mind 3:36
9 Ourobouros 5:39
10 Savannah 10:05
 
Лог создания рипа
Exact Audio Copy V1.0 beta 3 from 29. August 2011
EAC extraction logfile from 17. August 2013, 14:45
Adam Rudolph's Moving Pictures / Skyway
Used drive : PIONEER DVD-RW DVR-115D Adapter: 0 ID: 0
Read mode : Secure
Utilize accurate stream : Yes
Defeat audio cache : Yes
Make use of C2 pointers : No
Read offset correction : 48
Overread into Lead-In and Lead-Out : No
Fill up missing offset samples with silence : Yes
Delete leading and trailing silent blocks : No
Null samples used in CRC calculations : Yes
Used interface : Installed external ASPI interface
Gap handling : Appended to previous track
Used output format : User Defined Encoder
Selected bitrate : 896 kBit/s
Quality : High
Add ID3 tag : No
Command line compressor : C:\Program Files\Exact Audio Copy\FLAC\FLAC.EXE
Additional command line options : -6 -V -T "ARTIST=%artist%" -T "TITLE=%title%" -T "ALBUM=%albumtitle%" -T "DATE=%year%" -T "TRACKNUMBER=%tracknr%" -T "GENRE=%genre%" -T "COMMENT=%comment%" -T "BAND=%albuminterpret%" -T "COMPOSER=%composer%" %haslyrics%--tag-from-file=LYRICS="%lyricsfile%"%haslyrics% -T "DISCNUMBER=%cdnumber%" -T "TOTALDISCS=%totalcds%" -T "TOTALTRACKS=%numtracks%" %hascover%--picture="%coverfile%"%hascover% %source% -o %dest%
TOC of the extracted CD
Track | Start | Length | Start sector | End sector
---------------------------------------------------------
1 | 0:00.32 | 6:02.00 | 32 | 27181
2 | 6:02.32 | 5:32.50 | 27182 | 52131
3 | 11:35.07 | 3:22.43 | 52132 | 67324
4 | 14:57.50 | 5:14.57 | 67325 | 90931
5 | 20:12.32 | 5:05.38 | 90932 | 113844
6 | 25:17.70 | 7:12.45 | 113845 | 146289
7 | 32:30.40 | 4:38.22 | 146290 | 167161
8 | 37:08.62 | 3:36.45 | 167162 | 183406
9 | 40:45.32 | 5:39.00 | 183407 | 208831
10 | 46:24.32 | 10:05.00 | 208832 | 254206
Track 1
Filename D:\zzz\01 - Oshogbo.wav
Pre-gap length 0:00:02.32
Peak level 100.0 %
Extraction speed 4.6 X
Track quality 100.0 %
Test CRC AF35DA3B
Copy CRC AF35DA3B
Accurately ripped (confidence 1) [07620372] (AR v1)
Copy OK
Track 2
Filename D:\zzz\02 - Beloved.wav
Peak level 49.4 %
Extraction speed 4.7 X
Track quality 99.9 %
Test CRC BD690A19
Copy CRC BD690A19
Accurately ripped (confidence 1) [61BE00B2] (AR v1)
Copy OK
Track 3
Filename D:\zzz\03 - Terra Incognita.wav
Peak level 37.8 %
Extraction speed 5.3 X
Track quality 100.0 %
Test CRC 6089826A
Copy CRC 6089826A
Accurately ripped (confidence 1) [58734F50] (AR v1)
Copy OK
Track 4
Filename D:\zzz\04 - The Earth Spins Faster Than Words.wav
Peak level 53.1 %
Extraction speed 5.9 X
Track quality 100.0 %
Test CRC 46C6A24A
Copy CRC 46C6A24A
Accurately ripped (confidence 1) [BBB61819] (AR v1)
Copy OK
Track 5
Filename D:\zzz\05 - Impulsion.wav
Peak level 93.7 %
Extraction speed 6.3 X
Track quality 100.0 %
Test CRC DD411D17
Copy CRC DD411D17
Cannot be verified as accurate (confidence 1) [78E87417], AccurateRip returned [5C058358] (AR v2)
Copy OK
Track 6
Filename D:\zzz\06 - Dreaming Of The Skyway.wav
Peak level 55.0 %
Extraction speed 6.5 X
Track quality 99.9 %
Test CRC 8C02A4B5
Copy CRC 8C02A4B5
Accurately ripped (confidence 1) [5DB4771E] (AR v1)
Copy OK
Track 7
Filename D:\zzz\07 - Baraka.wav
Peak level 78.1 %
Extraction speed 7.0 X
Track quality 100.0 %
Test CRC 29FF1377
Copy CRC 29FF1377
Accurately ripped (confidence 1) [E8B6D7DA] (AR v1)
Copy OK
Track 8
Filename D:\zzz\08 - The Other Mind.wav
Peak level 41.5 %
Extraction speed 7.0 X
Track quality 100.0 %
Test CRC 6A8721E6
Copy CRC 6A8721E6
Accurately ripped (confidence 1) [E3F7067A] (AR v1)
Copy OK
Track 9
Filename D:\zzz\09 - Ourobouros.wav
Peak level 67.2 %
Extraction speed 7.1 X
Track quality 99.9 %
Test CRC 1A3DE0C0
Copy CRC 1A3DE0C0
Cannot be verified as accurate (confidence 1) [9A2CF32B], AccurateRip returned [4D43FC82] (AR v2)
Copy OK
Track 10
Filename D:\zzz\10 - Savannah.wav
Peak level 100.0 %
Extraction speed 8.5 X
Track quality 100.0 %
Test CRC 298A6DBB
Copy CRC 298A6DBB
Accurately ripped (confidence 1) [CB917A82] (AR v1)
Copy OK
8 track(s) accurately ripped
2 track(s) could not be verified as accurate
Some tracks could not be verified as accurate
No errors occurred
End of status report
==== Log checksum 14F43907EEB44CDACB2B51FBB9C4630369446F2FBE937F0D6A1E2BA752A838B2 ====
 
Содержание индексной карты (.CUE)
REM GENRE "Ethnic Jazz"
REM DATE 1994
REM DISCID 970D3D0A
REM COMMENT "ExactAudioCopy v1.0b3"
PERFORMER "Adam Rudolph's Moving Pictures"
TITLE "Skyway"
FILE "01 - Oshogbo.wav" WAVE
TRACK 01 AUDIO
TITLE "Oshogbo"
PERFORMER "Adam Rudolph's Moving Pictures"
PREGAP 00:00:32
INDEX 01 00:00:00
FILE "02 - Beloved.wav" WAVE
TRACK 02 AUDIO
TITLE "Beloved"
PERFORMER "Adam Rudolph's Moving Pictures"
INDEX 01 00:00:00
FILE "03 - Terra Incognita.wav" WAVE
TRACK 03 AUDIO
TITLE "Terra Incognita"
PERFORMER "Adam Rudolph's Moving Pictures"
INDEX 01 00:00:00
FILE "04 - The Earth Spins Faster Than Words.wav" WAVE
TRACK 04 AUDIO
TITLE "The Earth Spins Faster Than Words"
PERFORMER "Adam Rudolph's Moving Pictures"
INDEX 01 00:00:00
FILE "05 - Impulsion.wav" WAVE
TRACK 05 AUDIO
TITLE "Impulsion"
PERFORMER "Adam Rudolph's Moving Pictures"
INDEX 01 00:00:00
FILE "06 - Dreaming Of The Skyway.wav" WAVE
TRACK 06 AUDIO
TITLE "Dreaming Of The Skyway"
PERFORMER "Adam Rudolph's Moving Pictures"
INDEX 01 00:00:00
FILE "07 - Baraka.wav" WAVE
TRACK 07 AUDIO
TITLE "Baraka"
PERFORMER "Adam Rudolph's Moving Pictures"
INDEX 01 00:00:00
FILE "08 - The Other Mind.wav" WAVE
TRACK 08 AUDIO
TITLE "The Other Mind"
PERFORMER "Adam Rudolph's Moving Pictures"
INDEX 01 00:00:00
FILE "09 - Ourobouros.wav" WAVE
TRACK 09 AUDIO
TITLE "Ourobouros"
PERFORMER "Adam Rudolph's Moving Pictures"
INDEX 01 00:00:00
FILE "10 - Savannah.wav" WAVE
TRACK 10 AUDIO
TITLE "Savannah"
PERFORMER "Adam Rudolph's Moving Pictures"
INDEX 01 00:00:00
 
Лог проверки качества
d:\>d:\aucdtect -d/-m0 d:\zzz\*.wav
auCDtect: CD records authenticity detector, version 0.8.2
Copyright (c) 2004 Oleg Berngardt. All rights reserved.
Copyright (c) 2004 Alexander Djourik. All rights reserved.
------------------------------------------------------------
Processing file: [01. Oshogbo.wav]
------------------------------------------------------------
This track looks like CDDA with probability 99%
------------------------------------------------------------
Processing file: [02. Beloved.wav]
------------------------------------------------------------
This track looks like CDDA with probability 100%
------------------------------------------------------------
Processing file: [03. Terra Incognita.wav]
------------------------------------------------------------
This track looks like CDDA with probability 99%
------------------------------------------------------------
Processing file: [04. The Earth Spins Faster Than Words.wav]
------------------------------------------------------------
This track looks like CDDA with probability 100%
------------------------------------------------------------
Processing file: [05. Impulsion.wav]
------------------------------------------------------------
This track looks like CDDA with probability 100%
------------------------------------------------------------
Processing file: [06. Dreaming Of The Skyway.wav]
------------------------------------------------------------
This track looks like CDDA with probability 100%
------------------------------------------------------------
Processing file: [07. Baraka.wav]
------------------------------------------------------------
This track looks like CDDA with probability 99%
------------------------------------------------------------
Processing file: [08. The Other Mind.wav]
------------------------------------------------------------
This track looks like CDDA with probability 100%
------------------------------------------------------------
Processing file: [09. Ourobouros.wav]
------------------------------------------------------------
This track looks like CDDA with probability 100%
------------------------------------------------------------
Processing file: [10. Savannah.wav]
------------------------------------------------------------
This track looks like CDDA with probability 100%
------------------------------------------------------------
Final Conclusion:
------------------------------------------------------------
These tracks looks like CDDA with probability 100%
 
Состав
Flute, Lute, Ney – Jihad Racy
Guitar [Acoustic] – Kevin Eubanks
Harp, Zither – Susan Allen
Percussion – Adam Rudolph
Saxophone [Tenor, Soprano], Flute, Clarinet – Ralph Jones
Voice [Recitation] – Hannah Rudolph
По всем вопросам пишите личное сообщение пользователю M0p94ok.
17:11
347
Нет комментариев. Ваш будет первым!