Вы используете незарегистрированную версию компонента "Вкладки"!

Поиск

(Avant-Garde, Contemporary Jazz, Altri Suoni) Lucien Dubuis' Old School Quartet - Lucien Dubuis' Old School Quartet - 2003, FLAC (tracks+.cue), lossless

Треклист:
Lucien Dubuis' Old School Quartet / Lucien Dubuis' Old School Quartet
Жанр: Avant-Garde, Contemporary Jazz, Altri Suoni
Страна-производитель диска: Switzerland
Год издания: 2003
Издатель (лейбл): Altri Suoni
Номер по каталогу: AS 137
Аудиокодек: FLAC (*.flac)
Тип рипа: tracks+.cue
Битрейт аудио: lossless
Продолжительность: 59:14
Источник (релизер): Max Monteiro
Наличие сканов в содержимом раздачи: да
Треклист:
01. Popjazz 4:35
02. Tatouillette 6:04
03. Tartine du matin 5:41
04. Kotoukh 5:20
05. Réveil 1 2:55
06. Interlude 0:44
07. Bleu 3:26
08. Réveil 2 7:10
09. Petits Pieds 3:23
10. Interlude 0:46
11. À 2 ans 5:34
12. Superpop 13:36
Compositions de Lucien Dubuis.
Enregistré les 20 et 21 août 2002 au Studio Artefax à Lausanne.
Lucien « John Deer » Dubuis – clarinette basse
Roman « John Crunch » Nowka – guitare
Simon « John Duff » Gerber – contrebasse
Lionel « John Gugu » Friedli – batterie
Jean-Marc Voisard - téléphone sur "Petits Pieds"
 
Лог создания рипа
Exact Audio Copy V1.0 beta 3 from 29. August 2011
EAC extraction logfile from 19. August 2013, 14:53
Lucien Dubuis' Old School Quartet / Lucien Dubuis' Old School Quartet
Used drive : SlimtypeeNAU508 5 Adapter: 1 ID: 0
Read mode : Secure
Utilize accurate stream : Yes
Defeat audio cache : Yes
Make use of C2 pointers : No
Read offset correction : 6
Overread into Lead-In and Lead-Out : No
Fill up missing offset samples with silence : Yes
Delete leading and trailing silent blocks : No
Null samples used in CRC calculations : Yes
Used interface : Native Win32 interface for Win NT & 2000
Gap handling : Appended to previous track
Used output format : User Defined Encoder
Selected bitrate : 768 kBit/s
Quality : High
Add ID3 tag : No
Command line compressor : C:\Program Files (x86)\Exact Audio Copy\Flac\flac.exe
Additional command line options : -8 -V -T "ARTIST=%artist%" -T "TITLE=%title%" -T "ALBUM=%albumtitle%" -T "DATE=%year%" -T "TRACKNUMBER=%tracknr%" -T "GENRE=%genre%" -T "PERFORMER=%albuminterpret%" -T "COMPOSER=%composer%" %haslyrics%--tag-from-file=LYRICS="%lyricsfile%"%haslyrics% -T "ALBUMARTIST=%albumartist%" -T "DISCNUMBER=%cdnumber%" -T "TOTALDISCS=%totalcds%" -T "TOTALTRACKS=%numtracks%" -T "COMMENT=%comment%" %source% -o %dest%
TOC of the extracted CD
Track | Start | Length | Start sector | End sector
---------------------------------------------------------
1 | 0:00.00 | 4:34.63 | 0 | 20612
2 | 4:34.63 | 6:03.62 | 20613 | 47899
3 | 10:38.50 | 5:40.56 | 47900 | 73455
4 | 16:19.31 | 5:19.58 | 73456 | 97438
5 | 21:39.14 | 2:55.31 | 97439 | 110594
6 | 24:34.45 | 0:43.67 | 110595 | 113886
7 | 25:18.37 | 3:26.03 | 113887 | 129339
8 | 28:44.40 | 7:09.66 | 129340 | 161580
9 | 35:54.31 | 3:22.73 | 161581 | 176803
10 | 39:17.29 | 0:46.10 | 176804 | 180263
11 | 40:03.39 | 5:34.28 | 180264 | 205341
12 | 45:37.67 | 13:35.47 | 205342 | 266513
Track 1
Filename C:\EAC rips\01 - Popjazz.wav
Pre-gap length 0:00:02.00
Peak level 96.6 %
Extraction speed 1.1 X
Track quality 100.0 %
Test CRC 569016C8
Copy CRC 569016C8
Accurately ripped (confidence 1) [2E95016F] (AR v2)
Copy OK
Track 2
Filename C:\EAC rips\02 - Tatouillette.wav
Pre-gap length 0:00:01.45
Peak level 96.6 %
Extraction speed 1.3 X
Track quality 100.0 %
Test CRC 181DB311
Copy CRC 181DB311
Accurately ripped (confidence 1) [271D86B2] (AR v2)
Copy OK
Track 3
Filename C:\EAC rips\03 - Tartine du matin.wav
Pre-gap length 0:00:01.45
Peak level 96.6 %
Extraction speed 1.4 X
Track quality 100.0 %
Test CRC FFF79D11
Copy CRC FFF79D11
Accurately ripped (confidence 1) [3895FECE] (AR v2)
Copy OK
Track 4
Filename C:\EAC rips\04 - Kotoukh.wav
Peak level 96.6 %
Extraction speed 1.5 X
Track quality 100.0 %
Test CRC 546A85A0
Copy CRC 546A85A0
Accurately ripped (confidence 1) [EB317596] (AR v2)
Copy OK
Track 5
Filename C:\EAC rips\05 - Réveil 1.wav
Peak level 96.6 %
Extraction speed 1.5 X
Track quality 100.0 %
Test CRC D858D56F
Copy CRC D858D56F
Accurately ripped (confidence 1) [A9B7CA70] (AR v2)
Copy OK
Track 6
Filename C:\EAC rips\06 - Interlude.wav
Pre-gap length 0:00:01.45
Peak level 96.5 %
Extraction speed 1.0 X
Track quality 100.0 %
Test CRC D2A7A335
Copy CRC D2A7A335
Accurately ripped (confidence 1) [01259ADA] (AR v2)
Copy OK
Track 7
Filename C:\EAC rips\07 - Bleu.wav
Pre-gap length 0:00:01.45
Peak level 96.6 %
Extraction speed 1.6 X
Track quality 100.0 %
Test CRC E2155DE4
Copy CRC E2155DE4
Accurately ripped (confidence 1) [06366C06] (AR v2)
Copy OK
Track 8
Filename C:\EAC rips\08 - Réveil 2.wav
Pre-gap length 0:00:01.45
Peak level 96.5 %
Extraction speed 1.8 X
Track quality 100.0 %
Test CRC BC69176F
Copy CRC BC69176F
Accurately ripped (confidence 1) [E06D8A00] (AR v2)
Copy OK
Track 9
Filename C:\EAC rips\09 - Petits Pieds.wav
Pre-gap length 0:00:02.45
Peak level 96.6 %
Extraction speed 1.7 X
Track quality 100.0 %
Test CRC 5E408E97
Copy CRC 5E408E97
Accurately ripped (confidence 1) [CF8E8535] (AR v2)
Copy OK
Track 10
Filename C:\EAC rips\10 - Interlude.wav
Pre-gap length 0:00:02.45
Peak level 96.5 %
Extraction speed 0.8 X
Track quality 99.7 %
Test CRC 6ED42729
Copy CRC 6ED42729
Accurately ripped (confidence 1) [3DD9D7A8] (AR v2)
Copy OK
Track 11
Filename C:\EAC rips\11 - À 2 ans.wav
Pre-gap length 0:00:02.45
Peak level 96.5 %
Extraction speed 2.0 X
Track quality 100.0 %
Test CRC 6A2A9271
Copy CRC 6A2A9271
Accurately ripped (confidence 1) [E9D5B027] (AR v2)
Copy OK
Track 12
Filename C:\EAC rips\12 - Superpop.wav
Pre-gap length 0:00:01.45
Peak level 96.6 %
Extraction speed 2.3 X
Track quality 100.0 %
Test CRC AB415B3C
Copy CRC AB415B3C
Accurately ripped (confidence 1) [373F36B6] (AR v2)
Copy OK
All tracks accurately ripped
No errors occurred
End of status report
---- CUETools DB Plugin V2.1.4
[CTDB TOCID: HsHFbxlerd9Z26sn229D62lLfxI-] disk not present in database
Submit result: HsHFbxlerd9Z26sn229D62lLfxI- has been uploaded
==== Log checksum CF87D845058BD1354B81B51751C3CC7FA51126BE170214AD40BB3180E962EEFD ====
 
Содержание индексной карты (.CUE)
REM GENRE Jazz
REM DATE 2003
REM DISCID 9D0DE10C
REM COMMENT "ExactAudioCopy v1.0b3"
PERFORMER "Lucien Dubuis' Old School Quartet"
TITLE "Lucien Dubuis' Old School Quartet"
FILE "01 - Popjazz.wav" WAVE
TRACK 01 AUDIO
TITLE "Popjazz"
PERFORMER "Lucien Dubuis' Old School Quartet"
FLAGS DCP
INDEX 01 00:00:00
TRACK 02 AUDIO
TITLE "Tatouillette"
PERFORMER "Lucien Dubuis' Old School Quartet"
FLAGS DCP
INDEX 00 04:33:18
FILE "02 - Tatouillette.wav" WAVE
INDEX 01 00:00:00
TRACK 03 AUDIO
TITLE "Tartine du matin"
PERFORMER "Lucien Dubuis' Old School Quartet"
FLAGS DCP
INDEX 00 06:02:17
FILE "03 - Tartine du matin.wav" WAVE
INDEX 01 00:00:00
FILE "04 - Kotoukh.wav" WAVE
TRACK 04 AUDIO
TITLE "Kotoukh"
PERFORMER "Lucien Dubuis' Old School Quartet"
FLAGS DCP
INDEX 01 00:00:00
FILE "05 - Réveil 1.wav" WAVE
TRACK 05 AUDIO
TITLE "Réveil 1"
PERFORMER "Lucien Dubuis' Old School Quartet"
FLAGS DCP
INDEX 01 00:00:00
TRACK 06 AUDIO
TITLE "Interlude"
PERFORMER "Lucien Dubuis' Old School Quartet"
FLAGS DCP
INDEX 00 02:53:61
FILE "06 - Interlude.wav" WAVE
INDEX 01 00:00:00
TRACK 07 AUDIO
TITLE "Bleu"
PERFORMER "Lucien Dubuis' Old School Quartet"
FLAGS DCP
INDEX 00 00:42:22
FILE "07 - Bleu.wav" WAVE
INDEX 01 00:00:00
TRACK 08 AUDIO
TITLE "Réveil 2"
PERFORMER "Lucien Dubuis' Old School Quartet"
FLAGS DCP
INDEX 00 03:24:33
FILE "08 - Réveil 2.wav" WAVE
INDEX 01 00:00:00
TRACK 09 AUDIO
TITLE "Petits Pieds"
PERFORMER "Lucien Dubuis' Old School Quartet"
FLAGS DCP
INDEX 00 07:07:21
FILE "09 - Petits Pieds.wav" WAVE
INDEX 01 00:00:00
TRACK 10 AUDIO
TITLE "Interlude"
PERFORMER "Lucien Dubuis' Old School Quartet"
FLAGS DCP
INDEX 00 03:20:28
FILE "10 - Interlude.wav" WAVE
INDEX 01 00:00:00
TRACK 11 AUDIO
TITLE "À 2 ans"
PERFORMER "Lucien Dubuis' Old School Quartet"
FLAGS DCP
INDEX 00 00:43:40
FILE "11 - À 2 ans.wav" WAVE
INDEX 01 00:00:00
TRACK 12 AUDIO
TITLE "Superpop"
PERFORMER "Lucien Dubuis' Old School Quartet"
FLAGS DCP
INDEX 00 05:32:58
FILE "12 - Superpop.wav" WAVE
INDEX 01 00:00:00
Any questions -> support@pro-jazz.com. По всем вопросам пишите -> support@pro-jazz.com
17:11
219
Нет комментариев. Ваш будет первым!