Вы используете незарегистрированную версию компонента "Вкладки"!

Поиск

(Avant-Garde, Vocal) Erika Stucky - Bubbles & Bones - 2001, FLAC (tracks+.cue), lossless

Треклист:
Erika Stucky / Bubbles & Bones
Жанр: Avant-Garde, Vocal
Страна-производитель диска: Germany
Год издания: 2001
Издатель (лейбл): Traumton Records
Номер по каталогу: 4454
Аудиокодек: FLAC (*.flac)
Тип рипа: tracks+.cue
Битрейт аудио: lossless
Продолжительность: 1:00:56
Источник (релизер): Max Monteiro
Наличие сканов в содержимом раздачи: да
Треклист:
01. Soulsteak (Stucky / Stucky) 2:27
02. There Was a Girl in 69 (music Randy Newman / words Erika Stucky) 4:09
03. Roxanne (Sting) 4:09
04. « Walters » Strip-Joint (Stucky) 1:37
05. Squeeze Me (Duke Ellington) 4:14
06. I Want You (John Lennon / Paul McCartney) 8:30
07. Like Someone in Love (Van Heusen / Burke) 3:01
08. Temptation (Brown / Freed) 4:13
09. Starquality I (Stucky / Bones) 2:53
10. Raoult Lounge (Marco Raoult / Stucky) 4:33
11. Zäuerli (trad., arr. George Gruntz) 2:30
12. You Are My Sunshine (Davis / Mitchell) 5:49
13. Roach-Hotel (Stucky / Stucky) 4:30
14. I Hate Dogs (Stucky / Stucky) 1:54
15. Walk This Way (Tyler / Perry) 3:16
16. Starquality II (Stucky / Stucky) / But Honey, I’m Perfectly Sober, Let Me Drive! 3:12
Recorded in February 2001 in Manhattan at Uptime Studio Recordings.
« Walters Strip-Joint » and « Roxanne » recorded at Walters Pub, NY.
Additional recordings at Radio Studio Zürich.
Erika Stucky – Vocals, Accordion, Melodica
Ray Anderson – Sousaphone, Trombone, Vocals
Art Baron – Trombone, Melodica, Toys, Stovepipe Cornetto
José Davila – Tuba
George Gruntz – Piano
Dino Saluzzi – Bandoneon
Knut Jensen – Loops, Guitar, Programming
 
Лог создания рипа
Exact Audio Copy V1.0 beta 3 from 29. August 2011
EAC extraction logfile from 18. August 2013, 18:54
Erika Stucky / Bubbles & Bones
Used drive : SlimtypeeNAU508 5 Adapter: 1 ID: 0
Read mode : Secure
Utilize accurate stream : Yes
Defeat audio cache : Yes
Make use of C2 pointers : No
Read offset correction : 6
Overread into Lead-In and Lead-Out : No
Fill up missing offset samples with silence : Yes
Delete leading and trailing silent blocks : No
Null samples used in CRC calculations : Yes
Used interface : Native Win32 interface for Win NT & 2000
Gap handling : Appended to previous track
Used output format : User Defined Encoder
Selected bitrate : 768 kBit/s
Quality : High
Add ID3 tag : No
Command line compressor : C:\Program Files (x86)\Exact Audio Copy\Flac\flac.exe
Additional command line options : -8 -V -T "ARTIST=%artist%" -T "TITLE=%title%" -T "ALBUM=%albumtitle%" -T "DATE=%year%" -T "TRACKNUMBER=%tracknr%" -T "GENRE=%genre%" -T "PERFORMER=%albuminterpret%" -T "COMPOSER=%composer%" %haslyrics%--tag-from-file=LYRICS="%lyricsfile%"%haslyrics% -T "ALBUMARTIST=%albumartist%" -T "DISCNUMBER=%cdnumber%" -T "TOTALDISCS=%totalcds%" -T "TOTALTRACKS=%numtracks%" -T "COMMENT=%comment%" %source% -o %dest%
TOC of the extracted CD
Track | Start | Length | Start sector | End sector
---------------------------------------------------------
1 | 0:00.00 | 2:27.09 | 0 | 11033
2 | 2:27.09 | 4:09.01 | 11034 | 29709
3 | 6:36.10 | 4:08.45 | 29710 | 48354
4 | 10:44.55 | 1:37.32 | 48355 | 55661
5 | 12:22.12 | 4:13.72 | 55662 | 74708
6 | 16:36.09 | 8:30.00 | 74709 | 112958
7 | 25:06.09 | 3:00.38 | 112959 | 126496
8 | 28:06.47 | 4:12.38 | 126497 | 145434
9 | 32:19.10 | 2:53.37 | 145435 | 158446
10 | 35:12.47 | 4:32.38 | 158447 | 178884
11 | 39:45.10 | 2:30.15 | 178885 | 190149
12 | 42:15.25 | 5:49.22 | 190150 | 216346
13 | 48:04.47 | 4:29.38 | 216347 | 236559
14 | 52:34.10 | 1:54.37 | 236560 | 245146
15 | 54:28.47 | 3:15.38 | 245147 | 259809
16 | 57:44.10 | 3:12.22 | 259810 | 274231
17 | 63:28.32 | 8:01.19 | 285632 | 321725
Track 1
Filename C:\EAC rips\01 - Soulsteak.wav
Pre-gap length 0:00:02.00
Peak level 99.4 %
Extraction speed 1.0 X
Track quality 100.0 %
Test CRC EB5EAA76
Copy CRC EB5EAA76
Cannot be verified as accurate (confidence 7) [CEF06349], AccurateRip returned [F9D7AEA5] (AR v2)
Copy OK
Track 2
Filename C:\EAC rips\02 - There Was a Girl in 69.wav
Pre-gap length 0:00:02.12
Peak level 99.3 %
Extraction speed 1.0 X
Track quality 99.9 %
Test CRC E50E4097
Copy CRC E50E4097
Cannot be verified as accurate (confidence 7) [3E3CFA4E], AccurateRip returned [CCA71B9F] (AR v2)
Copy OK
Track 3
Filename C:\EAC rips\03 - Roxanne.wav
Pre-gap length 0:00:03.14
Peak level 99.4 %
Extraction speed 1.3 X
Track quality 100.0 %
Test CRC 8A43FDAF
Copy CRC 8A43FDAF
Cannot be verified as accurate (confidence 7) [4778DF27], AccurateRip returned [35BAA7B2] (AR v2)
Copy OK
Track 4
Filename C:\EAC rips\04 - ''Walters'' Strip-Joint.wav
Peak level 94.0 %
Extraction speed 1.1 X
Track quality 100.0 %
Test CRC F8095954
Copy CRC F8095954
Cannot be verified as accurate (confidence 7) [6757BAA3], AccurateRip returned [68F0B709] (AR v2)
Copy OK
Track 5
Filename C:\EAC rips\05 - Squeeze Me.wav
Peak level 99.4 %
Extraction speed 1.3 X
Track quality 99.9 %
Test CRC A3C681A7
Copy CRC A3C681A7
Cannot be verified as accurate (confidence 7) [6AED92FC], AccurateRip returned [C2B0C6B3] (AR v2)
Copy OK
Track 6
Filename C:\EAC rips\06 - I Want You.wav
Pre-gap length 0:00:02.12
Peak level 99.4 %
Extraction speed 1.7 X
Track quality 100.0 %
Test CRC FEA4E2DF
Copy CRC FEA4E2DF
Cannot be verified as accurate (confidence 7) [C89FEDC8], AccurateRip returned [E9AEA1DC] (AR v2)
Copy OK
Track 7
Filename C:\EAC rips\07 - Like Someone in Love.wav
Pre-gap length 0:00:02.12
Peak level 90.6 %
Extraction speed 1.6 X
Track quality 100.0 %
Test CRC D6731E90
Copy CRC D6731E90
Cannot be verified as accurate (confidence 7) [EE0C99A4], AccurateRip returned [27901FEF] (AR v2)
Copy OK
Track 8
Filename C:\EAC rips\08 - Temptation.wav
Pre-gap length 0:00:03.14
Peak level 98.8 %
Extraction speed 1.8 X
Track quality 100.0 %
Test CRC 0D45D738
Copy CRC 0D45D738
Cannot be verified as accurate (confidence 7) [8F098DA2], AccurateRip returned [CE970CEF] (AR v2)
Copy OK
Track 9
Filename C:\EAC rips\09 - Starquality I.wav
Pre-gap length 0:00:02.12
Peak level 98.5 %
Extraction speed 1.7 X
Track quality 100.0 %
Test CRC 19AA0279
Copy CRC 19AA0279
Cannot be verified as accurate (confidence 7) [378BEFF1], AccurateRip returned [BC989451] (AR v2)
Copy OK
Track 10
Filename C:\EAC rips\10 - Raoult Lounge.wav
Pre-gap length 0:00:02.13
Peak level 99.4 %
Extraction speed 1.9 X
Track quality 100.0 %
Test CRC 21F72A7E
Copy CRC 21F72A7E
Cannot be verified as accurate (confidence 7) [D174A63C], AccurateRip returned [60A431C0] (AR v2)
Copy OK
Track 11
Filename C:\EAC rips\11 - Zäuerli.wav
Pre-gap length 0:00:03.14
Peak level 93.9 %
Extraction speed 1.8 X
Track quality 100.0 %
Test CRC BA000DDE
Copy CRC BA000DDE
Cannot be verified as accurate (confidence 7) [FEC5D0FE], AccurateRip returned [C50271AE] (AR v2)
Copy OK
Track 12
Filename C:\EAC rips\12 - You Are My Sunshine.wav
Peak level 99.4 %
Extraction speed 2.1 X
Track quality 100.0 %
Test CRC C6F9E317
Copy CRC C6F9E317
Cannot be verified as accurate (confidence 7) [6CF60627], AccurateRip returned [EFCC4B38] (AR v2)
Copy OK
Track 13
Filename C:\EAC rips\13 - Roach-Hotel.wav
Pre-gap length 0:00:03.14
Peak level 99.4 %
Extraction speed 2.1 X
Track quality 100.0 %
Test CRC EEBEC1AD
Copy CRC EEBEC1AD
Cannot be verified as accurate (confidence 7) [74CF7CD2], AccurateRip returned [6E0CDC10] (AR v2)
Copy OK
Track 14
Filename C:\EAC rips\14 - I Hate Dogs.wav
Pre-gap length 0:00:03.13
Peak level 99.4 %
Extraction speed 1.5 X
Track quality 99.9 %
Test CRC D97AC9E1
Copy CRC D97AC9E1
Cannot be verified as accurate (confidence 7) [399EA1B1], AccurateRip returned [B373BC9C] (AR v2)
Copy OK
Track 15
Filename C:\EAC rips\15 - Walk This Way.wav
Pre-gap length 0:00:03.14
Peak level 99.4 %
Extraction speed 1.8 X
Track quality 99.9 %
Test CRC 4C66EF82
Copy CRC 4C66EF82
Cannot be verified as accurate (confidence 7) [C41B0252], AccurateRip returned [73602DB9] (AR v2)
Copy OK
Track 16
Filename C:\EAC rips\16 - Starquality II - But Honey, I'm Perfectly Sober, Let Me Drive!.wav
Pre-gap length 0:00:04.15
Peak level 99.4 %
Extraction speed 2.1 X
Track quality 100.0 %
Test CRC 5D88A2DD
Copy CRC 5D88A2DD
Cannot be verified as accurate (confidence 7) [5B2F7519], AccurateRip returned [D7BA4F97] (AR v2)
Copy OK
No tracks could be verified as accurate
You may have a different pressing from the one(s) in the database
No errors occurred
End of status report
---- CUETools DB Plugin V2.1.4
[CTDB TOCID: CUS8tJEWtlCtb_2Jm18hBRh0KuQ-] found
Submit result: CUS8tJEWtlCtb_2Jm18hBRh0KuQ- has been confirmed
Track | CTDB Status
1 | (2/2) Accurately ripped
2 | (2/2) Accurately ripped
3 | (2/2) Accurately ripped
4 | (2/2) Accurately ripped
5 | (2/2) Accurately ripped
6 | (2/2) Accurately ripped
7 | (2/2) Accurately ripped
8 | (2/2) Accurately ripped
9 | (2/2) Accurately ripped
10 | (2/2) Accurately ripped
11 | (2/2) Accurately ripped
12 | (2/2) Accurately ripped
13 | (2/2) Accurately ripped
14 | (2/2) Accurately ripped
15 | (2/2) Accurately ripped
16 | (2/2) Accurately ripped
==== Log checksum 2FA8FBDCFB63928EE949D214BDB8F4457A65A2FB9FCE41F97AFDDA3771A0F6DC ====
 
Содержание индексной карты (.CUE)
REM GENRE Jazz
REM DATE 2001
REM DISCID 1110C111
REM COMMENT "ExactAudioCopy v1.0b3"
PERFORMER "Erika Stucky"
TITLE "Bubbles & Bones"
FILE "01 - Soulsteak.wav" WAVE
TRACK 01 AUDIO
TITLE "Soulsteak"
PERFORMER "Erika Stucky"
ISRC DEE130104101
INDEX 01 00:00:00
TRACK 02 AUDIO
TITLE "There Was a Girl in 69"
PERFORMER "Erika Stucky"
ISRC DEE130104102
INDEX 00 02:24:72
FILE "02 - There Was a Girl in 69.wav" WAVE
INDEX 01 00:00:00
TRACK 03 AUDIO
TITLE "Roxanne"
PERFORMER "Erika Stucky"
ISRC DEE130104103
INDEX 00 04:05:62
FILE "03 - Roxanne.wav" WAVE
INDEX 01 00:00:00
FILE "04 - ''Walters'' Strip-Joint.wav" WAVE
TRACK 04 AUDIO
TITLE "'Walters' Strip-Joint"
PERFORMER "Erika Stucky"
ISRC DEE130104104
INDEX 01 00:00:00
FILE "05 - Squeeze Me.wav" WAVE
TRACK 05 AUDIO
TITLE "Squeeze Me"
PERFORMER "Erika Stucky"
ISRC DEE130104105
INDEX 01 00:00:00
TRACK 06 AUDIO
TITLE "I Want You"
PERFORMER "Erika Stucky"
ISRC DEE130104106
INDEX 00 04:11:60
FILE "06 - I Want You.wav" WAVE
INDEX 01 00:00:00
TRACK 07 AUDIO
TITLE "Like Someone in Love"
PERFORMER "Erika Stucky"
ISRC DEE130104107
INDEX 00 08:27:63
FILE "07 - Like Someone in Love.wav" WAVE
INDEX 01 00:00:00
TRACK 08 AUDIO
TITLE "Temptation"
PERFORMER "Erika Stucky"
ISRC DEE130104108
INDEX 00 02:57:24
FILE "08 - Temptation.wav" WAVE
INDEX 01 00:00:00
TRACK 09 AUDIO
TITLE "Starquality I"
PERFORMER "Erika Stucky"
ISRC DEE130104109
INDEX 00 04:10:26
FILE "09 - Starquality I.wav" WAVE
INDEX 01 00:00:00
TRACK 10 AUDIO
TITLE "Raoult Lounge"
PERFORMER "Erika Stucky"
ISRC DEE130104110
INDEX 00 02:51:24
FILE "10 - Raoult Lounge.wav" WAVE
INDEX 01 00:00:00
TRACK 11 AUDIO
TITLE "Zäuerli"
PERFORMER "Erika Stucky"
ISRC DEE130104111
INDEX 00 04:29:24
FILE "11 - Zäuerli.wav" WAVE
INDEX 01 00:00:00
FILE "12 - You Are My Sunshine.wav" WAVE
TRACK 12 AUDIO
TITLE "You Are My Sunshine"
PERFORMER "Erika Stucky"
ISRC DEE130104112
INDEX 01 00:00:00
TRACK 13 AUDIO
TITLE "Roach-Hotel"
PERFORMER "Erika Stucky"
ISRC DEE130104113
INDEX 00 05:46:08
FILE "13 - Roach-Hotel.wav" WAVE
INDEX 01 00:00:00
TRACK 14 AUDIO
TITLE "I Hate Dogs"
PERFORMER "Erika Stucky"
ISRC DEE130104114
INDEX 00 04:26:25
FILE "14 - I Hate Dogs.wav" WAVE
INDEX 01 00:00:00
TRACK 15 AUDIO
TITLE "Walk This Way"
PERFORMER "Erika Stucky"
ISRC DEE130104115
INDEX 00 01:51:23
FILE "15 - Walk This Way.wav" WAVE
INDEX 01 00:00:00
TRACK 16 AUDIO
TITLE "Starquality II / But Honey, I'm Perfectly Sober, Let Me Drive!"
PERFORMER "Erika Stucky"
ISRC DEE130104116
INDEX 00 03:11:23
FILE "16 - Starquality II - But Honey, I'm Perfectly Sober, Let Me Drive!.wav" WAVE
INDEX 01 00:00:00
TRACK 17 MODEx/2xxx
TITLE "[data track]"
PERFORMER "Erika Stucky"
INDEX 00 03:12:22
 
CUETools
[CUETools log; Date: 18.08.2013 18:56:10; Version: 2.1.4]
CD-Extra data track length 08:01:19.
[CTDB TOCID: CUS8tJEWtlCtb_2Jm18hBRh0KuQ-] found.
Track | CTDB Status
1 | (3/3) Accurately ripped
2 | (3/3) Accurately ripped
3 | (3/3) Accurately ripped
4 | (3/3) Accurately ripped
5 | (3/3) Accurately ripped
6 | (3/3) Accurately ripped
7 | (3/3) Accurately ripped
8 | (3/3) Accurately ripped
9 | (3/3) Accurately ripped
10 | (3/3) Accurately ripped
11 | (3/3) Accurately ripped
12 | (3/3) Accurately ripped
13 | (3/3) Accurately ripped
14 | (3/3) Accurately ripped
15 | (3/3) Accurately ripped
16 | (3/3) Accurately ripped
[AccurateRip ID: 0024cba9-01c0adea-1110c111] found.
Track [ CRC | V2 ] Status
01 [4b3ba973|cef06349] (00+00/13) No match
02 [91301661|3e3cfa4e] (00+00/13) No match
03 [713bd617|4778df27] (00+00/13) No match
04 [41e08bc7|6757baa3] (00+00/13) No match
05 [afb08ae3|6aed92fc] (00+00/13) No match
06 [6fa2e593|c89fedc8] (00+00/13) No match
07 [fa6f72f6|ee0c99a4] (00+00/13) No match
08 [7f0078f2|8f098da2] (00+00/13) No match
09 [da899c62|378beff1] (00+00/13) No match
10 [dbc5e000|d174a63c] (00+00/13) No match
11 [28cf66ee|fec5d0fe] (00+00/13) No match
12 [53a54890|6cf60627] (00+00/13) No match
13 [171b4feb|74cf7cd2] (00+00/13) No match
14 [bee7ce4c|399ea1b1] (00+00/13) No match
15 [befea724|c41b0252] (00+00/13) No match
16 [ecc43314|5b2f7519] (00+00/13) No match
Offsetted by 18:
01 [799da309] (06/13) Accurately ripped
02 [25606c4b] (06/13) Accurately ripped
03 [65512a93] (06/13) Accurately ripped
04 [45b07e29] (06/13) Accurately ripped
05 [0d6a1561] (06/13) Accurately ripped
06 [9cb05665] (06/13) Accurately ripped
07 [38413112] (06/13) Accurately ripped
08 [c4618e20] (06/13) Accurately ripped
09 [63882bde] (06/13) Accurately ripped
10 [71531e80] (06/13) Accurately ripped
11 [f287bab3] (06/13) Accurately ripped
12 [de858567] (06/13) Accurately ripped
13 [165d7b79] (06/13) Accurately ripped
14 [3b5b4ccc] (06/13) Accurately ripped
15 [72c99598] (06/13) Accurately ripped
16 [6a0bc226] (06/13) Accurately ripped
Track Peak [ CRC32 ] [W/O NULL] [ LOG ]
-- 99.4 [6A02529F] [9B0C2C1F]
01 99.4 [EB5EAA76] [EC57D764] CRC32
02 99.3 [E50E4097] [00ADF1FE] CRC32
03 99.4 [8A43FDAF] [81447D88] CRC32
04 94.0 [F8095954] [B1E348E7] CRC32
05 99.4 [A3C681A7] [1A026F88] CRC32
06 99.4 [FEA4E2DF] [D648375F] CRC32
07 90.6 [D6731E90] [F435210C] CRC32
08 98.8 [0D45D738] [128AAE73] CRC32
09 98.5 [19AA0279] [FDDE83A3] CRC32
10 99.4 [21F72A7E] [B6902D5E] CRC32
11 93.9 [BA000DDE] [A958E802] CRC32
12 99.4 [C6F9E317] [C1D18BAE] CRC32
13 99.4 [EEBEC1AD] [77436645] CRC32
14 99.4 [D97AC9E1] [95797586] CRC32
15 99.4 [4C66EF82] [87F6441E] CRC32
16 99.4 [5D88A2DD] [CCFF4AC9] CRC32
Доп. информация: Super-8 clip « Mermaid » by Syl Betulius.
 
Состав
1. Soulsteak
Art Baron – Trombone
José Davila – Tuba
Kurt Jensen – Hammond, Loop
2. There Was a Girl in 69
Dino Saluzzi – Bandoneon
3. Roxanne
José Davila – Tuba
Art Baron – Trombone
Eric Gut – Drums
4. « Walters » Strip-Joint
Walters Pub: Ray Anderson, Art Baron, José Davila
5. Squeeze Me
George Gruntz – Piano
Art Baron – Trombone
Ray Anderson – Vocals, Trombone
6. I Want You
Intro:
Ray Anderson – Sousaphone
Art Baron – Trombone, Pipes, Toys
Kurt Jensen – Loops
Erika Stucky – Melodica
7. Like Someone in Love
Art Baron – Melodica
José Davila – Tuba
Kurt Jensen – Guitar
Monia Rizkallah – Violin
Darja Albiker – Violin
Angelika Maringer – Viola
Kurt Jensen – String Arrangement
8. Temptation
Dino Saluzzi – Bandoneon
9. Starquality I
Erika Stucky – Ray Anderson – Art Baron – José Davila
10. Raoult Lounge
Art Baron – Trombone
José Davila – Tuba
George Gruntz – Piano
11. Zäuerli
Art Baron – Trombone
José Davila – Tuba
George Gruntz – Piano
12. You Are My Sunshine
George Gruntz – Piano
Art Baron – Trombone
Ray Anderson – Sousaphone
13. Roach-Hotel
Kurt Jensen – Loops, Noises
Erika Stucky – Accordion
Art Baron – Trombone
Ray Anderson – Trombone
Art Baron, Ray Anderson – Tourguides
14. I Hate Dogs
Ray Anderson – Sousaphone
Art Baron – Trombone
José Davila – Tuba
15. Walk This Way
Ray Anderson – Sousaphone
Art Baron – Trombone
José Davila – Tuba
Erika Stucky – All Guitars
16. Starquality II / But Honey, I’m Perfectly Sober, Let Me Drive!
Any questions -> support@pro-jazz.com. По всем вопросам пишите -> support@pro-jazz.com
17:10
156
Нет комментариев. Ваш будет первым!