Вы используете незарегистрированную версию компонента "Вкладки"!

Поиск

(Free Improvisation, Future Jazz, FMR) Splint! - Intelligent Design - 2009, FLAC (tracks+.cue), lossless

(Free Improvisation, Future Jazz, FMR) Splint! - Intelligent Design - 2009, FLAC (tracks+.cue), lossless
Треклист:
Splint! / Intelligent Design
Жанр: Free Improvisation, Future Jazz, FMR
Страна-производитель диска: UK
Год издания: 2009
Издатель (лейбл): FMR Records
Номер по каталогу: FMRCD276-0909
Страна: Sweden
Аудиокодек: FLAC (*.flac)
Тип рипа: tracks+.cue
Битрейт аудио: lossless
Продолжительность: 48:31
Источник (релизер): свой фирменный диск
Наличие сканов в содержимом раздачи:
Треклист:
1 The Solar Cell 8:37
2 The Lyre 5:37
3 The Brick 4:36
4 The Thriller 4:49
5 The Serenade 5:07
6 The Fugue 3:38
7 The Radio 4:31
8 The Chaos Theory 6:30
9 The Vintage Port 4:53
 
Лог создания рипа
Exact Audio Copy V1.0 beta 3 from 29. August 2011
EAC extraction logfile from 18. August 2013, 20:55
Splint! / Intelligent Design
Used drive : PIONEER DVD-RW DVR-115D Adapter: 0 ID: 0
Read mode : Secure
Utilize accurate stream : Yes
Defeat audio cache : Yes
Make use of C2 pointers : No
Read offset correction : 48
Overread into Lead-In and Lead-Out : No
Fill up missing offset samples with silence : Yes
Delete leading and trailing silent blocks : No
Null samples used in CRC calculations : Yes
Used interface : Installed external ASPI interface
Gap handling : Appended to previous track
Used output format : User Defined Encoder
Selected bitrate : 896 kBit/s
Quality : High
Add ID3 tag : No
Command line compressor : C:\Program Files\Exact Audio Copy\FLAC\FLAC.EXE
Additional command line options : -6 -V -T "ARTIST=%artist%" -T "TITLE=%title%" -T "ALBUM=%albumtitle%" -T "DATE=%year%" -T "TRACKNUMBER=%tracknr%" -T "GENRE=%genre%" -T "COMMENT=%comment%" -T "BAND=%albuminterpret%" -T "COMPOSER=%composer%" %haslyrics%--tag-from-file=LYRICS="%lyricsfile%"%haslyrics% -T "DISCNUMBER=%cdnumber%" -T "TOTALDISCS=%totalcds%" -T "TOTALTRACKS=%numtracks%" %hascover%--picture="%coverfile%"%hascover% %source% -o %dest%
TOC of the extracted CD
Track | Start | Length | Start sector | End sector
---------------------------------------------------------
1 | 0:00.00 | 8:39.01 | 0 | 38925
2 | 8:39.01 | 5:39.73 | 38926 | 64423
3 | 14:18.74 | 4:38.02 | 64424 | 85275
4 | 18:57.01 | 4:49.30 | 85276 | 106980
5 | 23:46.31 | 5:08.62 | 106981 | 130142
6 | 28:55.18 | 3:39.19 | 130143 | 146586
7 | 32:34.37 | 4:32.23 | 146587 | 167009
8 | 37:06.60 | 6:31.70 | 167010 | 196404
9 | 43:38.55 | 4:53.15 | 196405 | 218394
Track 1
Filename D:\zzz\01 - The Solar Cell.wav
Pre-gap length 0:00:02.00
Peak level 98.8 %
Extraction speed 4.8 X
Track quality 100.0 %
Test CRC 266E9F0C
Copy CRC 266E9F0C
Track not present in AccurateRip database
Copy OK
Track 2
Filename D:\zzz\02 - The Lyre.wav
Pre-gap length 0:00:02.10
Peak level 98.8 %
Extraction speed 5.0 X
Track quality 99.9 %
Test CRC 56CA68FE
Copy CRC 56CA68FE
Track not present in AccurateRip database
Copy OK
Track 3
Filename D:\zzz\03 - The Brick.wav
Pre-gap length 0:00:02.68
Peak level 98.8 %
Extraction speed 5.8 X
Track quality 100.0 %
Test CRC FC40A870
Copy CRC FC40A870
Track not present in AccurateRip database
Copy OK
Track 4
Filename D:\zzz\04 - The Thriller.wav
Pre-gap length 0:00:02.33
Peak level 98.8 %
Extraction speed 6.1 X
Track quality 100.0 %
Test CRC 9966C018
Copy CRC 9966C018
Track not present in AccurateRip database
Copy OK
Track 5
Filename D:\zzz\05 - The Serenade.wav
Peak level 98.8 %
Extraction speed 6.5 X
Track quality 100.0 %
Test CRC 2E85355C
Copy CRC 2E85355C
Track not present in AccurateRip database
Copy OK
Track 6
Filename D:\zzz\06 - The Fugue.wav
Pre-gap length 0:00:01.24
Peak level 98.8 %
Extraction speed 6.6 X
Track quality 100.0 %
Test CRC 10BC5F1B
Copy CRC 10BC5F1B
Track not present in AccurateRip database
Copy OK
Track 7
Filename D:\zzz\07 - The Radio.wav
Pre-gap length 0:00:01.01
Peak level 98.8 %
Extraction speed 7.0 X
Track quality 100.0 %
Test CRC 9E3CAF90
Copy CRC 9E3CAF90
Track not present in AccurateRip database
Copy OK
Track 8
Filename D:\zzz\08 - The Chaos Theory.wav
Pre-gap length 0:00:01.36
Peak level 98.8 %
Extraction speed 7.6 X
Track quality 100.0 %
Test CRC 9A934485
Copy CRC 9A934485
Track not present in AccurateRip database
Copy OK
Track 9
Filename D:\zzz\09 - The Vintage Port.wav
Pre-gap length 0:00:01.71
Peak level 98.8 %
Extraction speed 7.6 X
Track quality 100.0 %
Test CRC 0A51AA78
Copy CRC 0A51AA78
Track not present in AccurateRip database
Copy OK
None of the tracks are present in the AccurateRip database
No errors occurred
End of status report
==== Log checksum 2C558CE9F2C35D203052A4DABE67D83E5A43A648AF0BF74F1AF166771F6BD64E ====
 
Содержание индексной карты (.CUE)
REM GENRE "Free Improvisation"
REM DATE 2009
REM DISCID 740B5F09
REM COMMENT "ExactAudioCopy v1.0b3"
PERFORMER "Splint!"
TITLE "Intelligent Design"
FILE "01 - The Solar Cell.wav" WAVE
TRACK 01 AUDIO
TITLE "The Solar Cell"
PERFORMER "Splint!"
FLAGS DCP
INDEX 01 00:00:00
TRACK 02 AUDIO
TITLE "The Lyre"
PERFORMER "Splint!"
FLAGS DCP
INDEX 00 08:36:66
FILE "02 - The Lyre.wav" WAVE
INDEX 01 00:00:00
TRACK 03 AUDIO
TITLE "The Brick"
PERFORMER "Splint!"
FLAGS DCP
INDEX 00 05:37:05
FILE "03 - The Brick.wav" WAVE
INDEX 01 00:00:00
TRACK 04 AUDIO
TITLE "The Thriller"
PERFORMER "Splint!"
FLAGS DCP
INDEX 00 04:35:44
FILE "04 - The Thriller.wav" WAVE
INDEX 01 00:00:00
FILE "05 - The Serenade.wav" WAVE
TRACK 05 AUDIO
TITLE "The Serenade"
PERFORMER "Splint!"
FLAGS DCP
INDEX 01 00:00:00
TRACK 06 AUDIO
TITLE "The Fugue"
PERFORMER "Splint!"
FLAGS DCP
INDEX 00 05:07:38
FILE "06 - The Fugue.wav" WAVE
INDEX 01 00:00:00
TRACK 07 AUDIO
TITLE "The Radio"
PERFORMER "Splint!"
FLAGS DCP
INDEX 00 03:38:18
FILE "07 - The Radio.wav" WAVE
INDEX 01 00:00:00
TRACK 08 AUDIO
TITLE "The Chaos Theory"
PERFORMER "Splint!"
FLAGS DCP
INDEX 00 04:30:62
FILE "08 - The Chaos Theory.wav" WAVE
INDEX 01 00:00:00
TRACK 09 AUDIO
TITLE "The Vintage Port"
PERFORMER "Splint!"
FLAGS DCP
INDEX 00 06:29:74
FILE "09 - The Vintage Port.wav" WAVE
INDEX 01 00:00:00
 
Лог проверки качества
d:\>d:\aucdtect -d/-m0 d:\zzz\*.wav
auCDtect: CD records authenticity detector, version 0.8.2
Copyright (c) 2004 Oleg Berngardt. All rights reserved.
Copyright (c) 2004 Alexander Djourik. All rights reserved.
------------------------------------------------------------
Processing file: [01. The Solar Cell.wav]
------------------------------------------------------------
This track looks like CDDA with probability 100%
------------------------------------------------------------
Processing file: [02. The Lyre.wav]
------------------------------------------------------------
This track looks like CDDA with probability 99%
------------------------------------------------------------
Processing file: [03. The Brick.wav]
------------------------------------------------------------
This track looks like CDDA with probability 99%
------------------------------------------------------------
Processing file: [04. The Thriller.wav]
------------------------------------------------------------
This track looks like CDDA with probability 100%
------------------------------------------------------------
Processing file: [05. The Serenade.wav]
------------------------------------------------------------
This track looks like CDDA with probability 99%
------------------------------------------------------------
Processing file: [06. The Fugue.wav]
------------------------------------------------------------
This track looks like CDDA with probability 100%
------------------------------------------------------------
Processing file: [07. The Radio.wav]
------------------------------------------------------------
This track looks like CDDA with probability 100%
------------------------------------------------------------
Processing file: [08. The Chaos Theory.wav]
------------------------------------------------------------
This track looks like CDDA with probability 99%
------------------------------------------------------------
Processing file: [09. The Vintage Port.wav]
------------------------------------------------------------
This track looks like CDDA with probability 100%
------------------------------------------------------------
Final Conclusion:
------------------------------------------------------------
These tracks looks like CDDA with probability 100%
Доп. информация:
 
Forest Gospel Review
If you are considering a trap with which to lure in and capture a real live actual witch, I submit to you this as a plan: carve out the insides of your house and lop off the roof. You’ll want to have full view of the open sky. Let it be on a night where the sky is painted with tar. The interior of your residence should be rife with the debris from your carving; add soil, preferably Indian clay, and stir (this is what a witch uses for bedding). Then, lock the volume parameters for your stereo system to the toppest notches of its volume capacity and play Splint!’s sophomore record, Intelligent Design. If that doesn’t attract ‘em by the busloads, nothing will (note: the capturing part, something which I am unfamiliar with, will by up to you and your own personal research; whatever happens, this will be an apt soundtrack). Following up their absolutely delicious debut, Moro, on the now-dormant Lampse record label, these Scandinavians have only grown more controlled and deeply disturbed in their particular mode and manner of electro-acoustic free jazzness. Intelligent Design begins slowly, minimal and serpentine, glumly flexing its muscular frame as the brassy bleatings sing morosely among the electronic bleeps and blips and pinging reverb. They way they build tension reminds me more than a little of a jazz oriented Ben Frost. It’s a free floating, brothy soup; a haze of roaming instrumentation. Cantankerous and carnivorous both, Intelligent Design breaks away briefly on “The Brick” into something less witch-luring and more bewitching. Acting as the album’s centrifuge, “The Brick” adds Malin Dahlstrom’s soulful vocals to Splint!’s characteristically dark beauty. The results are revelatory amidst the disorienting-yet-delectable mess of tracks that fill the rest of Intelligent Design. Really, it is one of the best singles of the year. Yet it doesn't outshine the record as a whole. The album is perfectly weighted, rigorous and ascetic, accumulating a steady rumble of static-based percussion that clicks and pops relentlessly into its penultimate track before breaking into a blithely realized ascension for the finale. It’s good. It’s that good.
 
Состав
Jon Fält: drums, percussion, sampler
Gunnar Halle: trumpet, electronics
Nils-Olav Johansen: guitar, synthesizers, electronics
Johannes Lundberg: double bass, keyboards, electronics, producer, mixing, mastering
Disdishdance: vocals (3)
Any questions -> support@pro-jazz.com. По всем вопросам пишите -> support@pro-jazz.com
17:13
160
Нет комментариев. Ваш будет первым!