Вы используете незарегистрированную версию компонента "Вкладки"!

Поиск

(Avant-Garde, Contemporary, Between the Lines) Michel Wintsch & Road Movie featuring Gerry Hemingway (w. Peter Scharli, Martin Schuetz, Lucas Niggli a. o.) - Michel Wintsch & Road Movie featuring Gerry Hemingway - 1998, FLAC (tracks+.cue), l

Треклист:
Michel Wintsch & Road Movie featuring Gerry Hemingway / Michel Wintsch & Road Movie featuring Gerry Hemingway
Жанр: Avant-Garde, Contemporary, Between the Lines
Страна-производитель диска: Germany
Год издания: 1998
Издатель (лейбл): Deutsche Structured Finance [Between the Lines]
Номер по каталогу: EFA SF 44
Аудиокодек: FLAC (*.flac)
Тип рипа: tracks+.cue
Битрейт аудио: lossless
Продолжительность: 51:37
Источник (релизер): Max Monteiro
Наличие сканов в содержимом раздачи: нет
Треклист:
01. Postludique (3:58)
02. Night Train (1:59)
03. Re-Pyrrect (3:22)
04. Play Time (2:52)
05. Italik part 1 (10:09)
06. Italik part 2 (3:32)
07. Hiver part 1 (1:36)
08. Hiver part 2 (5:03)
09. Natalia (7:42)
10. Chords (1:19)
11. Trash Road (3:20)
12. Le Chien du héros (6:46)
All compositions by Michel Wintsch, except 2 & 11 by Jean-Jacques Pedretti and 3 & 10 by Martin Schütz.
This work, commissioned by Deutsche Structured Finance, was first performed and recorded at the concert « Between the Lines – Zwischen Jazz und Europäischer Moderne », Südbahnhof Frankfurt, November 26th, 1998.
Gerry Hemingway – Drums
Franziska Baumann – Flute, Vocals
Nathalie Saudan – Violin
Daniela Beltraminelli – Violin
Peter Schärli – Trumpet
Jean-Jacques Pedretti – Trombone
Michel Wintsch – Piano
Jean-Philippe Zwahlen – Guitar
Martin Schütz – Violoncello
Lucas Niggli – Drums
Jean Kéraudren – Sound
 
Лог создания рипа
Exact Audio Copy V1.0 beta 3 from 29. August 2011
EAC extraction logfile from 30. July 2013, 22:43
Michel Wintsch & Road Movie featuring Gerry Hemingway / Michel Wintsch & Road Movie featuring Gerry Hemingway
Used drive : SlimtypeeNAU508 5 Adapter: 1 ID: 0
Read mode : Secure
Utilize accurate stream : Yes
Defeat audio cache : Yes
Make use of C2 pointers : No
Read offset correction : 6
Overread into Lead-In and Lead-Out : No
Fill up missing offset samples with silence : Yes
Delete leading and trailing silent blocks : No
Null samples used in CRC calculations : Yes
Used interface : Native Win32 interface for Win NT & 2000
Gap handling : Appended to previous track
Used output format : User Defined Encoder
Selected bitrate : 768 kBit/s
Quality : High
Add ID3 tag : No
Command line compressor : C:\Program Files (x86)\Exact Audio Copy\Flac\flac.exe
Additional command line options : -8 -V -T "ARTIST=%artist%" -T "TITLE=%title%" -T "ALBUM=%albumtitle%" -T "DATE=%year%" -T "TRACKNUMBER=%tracknr%" -T "GENRE=%genre%" -T "PERFORMER=%albuminterpret%" -T "COMPOSER=%composer%" %haslyrics%--tag-from-file=LYRICS="%lyricsfile%"%haslyrics% -T "ALBUMARTIST=%albumartist%" -T "DISCNUMBER=%cdnumber%" -T "TOTALDISCS=%totalcds%" -T "TOTALTRACKS=%numtracks%" -T "COMMENT=%comment%" %source% -o %dest%
TOC of the extracted CD
Track | Start | Length | Start sector | End sector
---------------------------------------------------------
1 | 0:00.00 | 3:57.60 | 0 | 17834
2 | 3:57.60 | 1:58.67 | 17835 | 26751
3 | 5:56.52 | 3:21.55 | 26752 | 41881
4 | 9:18.32 | 2:52.16 | 41882 | 54797
5 | 12:10.48 | 10:08.60 | 54798 | 100457
6 | 22:19.33 | 3:32.34 | 100458 | 116391
7 | 25:51.67 | 1:35.51 | 116392 | 123567
8 | 27:27.43 | 5:02.46 | 123568 | 146263
9 | 32:30.14 | 7:42.28 | 146264 | 180941
10 | 40:12.42 | 1:18.59 | 180942 | 186850
11 | 41:31.26 | 3:20.08 | 186851 | 201858
12 | 44:51.34 | 6:45.39 | 201859 | 232272
Track 1
Filename C:\EAC rips\01 - Postludique.wav
Pre-gap length 0:00:02.00
Peak level 100.0 %
Extraction speed 1.0 X
Track quality 100.0 %
Test CRC 63479412
Copy CRC 63479412
Accurately ripped (confidence 3) [55B73844] (AR v2)
Copy OK
Track 2
Filename C:\EAC rips\02 - Night Train.wav
Peak level 99.9 %
Extraction speed 1.0 X
Track quality 100.0 %
Test CRC 9A4CF9D9
Copy CRC 9A4CF9D9
Accurately ripped (confidence 3) [3C1111C6] (AR v2)
Copy OK
Track 3
Filename C:\EAC rips\03 - Re-Pyrrect.wav
Peak level 79.0 %
Extraction speed 1.2 X
Track quality 100.0 %
Test CRC CD4039E3
Copy CRC CD4039E3
Accurately ripped (confidence 3) [AC82E93E] (AR v2)
Copy OK
Track 4
Filename C:\EAC rips\04 - Play Time.wav
Peak level 100.0 %
Extraction speed 1.2 X
Track quality 100.0 %
Test CRC 4DECA6DF
Copy CRC 4DECA6DF
Accurately ripped (confidence 3) [84E7D7A2] (AR v2)
Copy OK
Track 5
Filename C:\EAC rips\05 - Italik part 1.wav
Peak level 100.0 %
Extraction speed 1.6 X
Track quality 100.0 %
Test CRC 7F59708B
Copy CRC 7F59708B
Accurately ripped (confidence 3) [82ED39C7] (AR v2)
Copy OK
Track 6
Filename C:\EAC rips\06 - Italik part 2.wav
Peak level 100.0 %
Extraction speed 1.4 X
Track quality 99.9 %
Test CRC EA4E9028
Copy CRC EA4E9028
Accurately ripped (confidence 3) [2B6BFB78] (AR v2)
Copy OK
Track 7
Filename C:\EAC rips\07 - Hiver part 1.wav
Peak level 41.6 %
Extraction speed 1.3 X
Track quality 100.0 %
Test CRC FBF65A39
Copy CRC FBF65A39
Accurately ripped (confidence 3) [AB1339CD] (AR v2)
Copy OK
Track 8
Filename C:\EAC rips\08 - Hiver part 2.wav
Peak level 100.0 %
Extraction speed 1.8 X
Track quality 100.0 %
Test CRC 0ABEC091
Copy CRC 0ABEC091
Accurately ripped (confidence 3) [CA005BD5] (AR v2)
Copy OK
Track 9
Filename C:\EAC rips\09 - Natalia.wav
Peak level 100.0 %
Extraction speed 1.9 X
Track quality 100.0 %
Test CRC 8796FCB1
Copy CRC 8796FCB1
Accurately ripped (confidence 3) [E7392214] (AR v2)
Copy OK
Track 10
Filename C:\EAC rips\10 - Chords.wav
Peak level 99.9 %
Extraction speed 1.5 X
Track quality 100.0 %
Test CRC CE2918E2
Copy CRC CE2918E2
Accurately ripped (confidence 3) [759C31BF] (AR v2)
Copy OK
Track 11
Filename C:\EAC rips\11 - Trash Road.wav
Peak level 100.0 %
Extraction speed 1.9 X
Track quality 100.0 %
Test CRC 64BC0B4E
Copy CRC 64BC0B4E
Accurately ripped (confidence 3) [08949214] (AR v2)
Copy OK
Track 12
Filename C:\EAC rips\12 - Le Chien du héros.wav
Peak level 100.0 %
Extraction speed 2.1 X
Track quality 100.0 %
Test CRC E4007152
Copy CRC E4007152
Accurately ripped (confidence 3) [95F901F1] (AR v2)
Copy OK
All tracks accurately ripped
No errors occurred
End of status report
---- CUETools DB Plugin V2.1.4
[CTDB TOCID: LDQpbE2Q0QtLDwd0uGIcQaB0Fdo-] found
Submit result: LDQpbE2Q0QtLDwd0uGIcQaB0Fdo- has been confirmed
Track | CTDB Status
1 | (2/2) Accurately ripped
2 | (2/2) Accurately ripped
3 | (2/2) Accurately ripped
4 | (2/2) Accurately ripped
5 | (2/2) Accurately ripped
6 | (2/2) Accurately ripped
7 | (2/2) Accurately ripped
8 | (2/2) Accurately ripped
9 | (2/2) Accurately ripped
10 | (2/2) Accurately ripped
11 | (2/2) Accurately ripped
12 | (2/2) Accurately ripped
==== Log checksum DAE0169F210538272011690F0D15524D524A75E6857727AA25A413981B558C1F ====
 
Содержание индексной карты (.CUE)
REM GENRE Jazz
REM DATE 1998
REM DISCID A40C180C
REM COMMENT "ExactAudioCopy v1.0b3"
PERFORMER "Michel Wintsch & Road Movie featuring Gerry Hemingway"
TITLE "Michel Wintsch & Road Movie featuring Gerry Hemingway"
FILE "01 - Postludique.wav" WAVE
TRACK 01 AUDIO
TITLE "Postludique"
PERFORMER "Michel Wintsch & Road Movie featuring Gerry Hemingway"
INDEX 01 00:00:00
FILE "02 - Night Train.wav" WAVE
TRACK 02 AUDIO
TITLE "Night Train"
PERFORMER "Michel Wintsch & Road Movie featuring Gerry Hemingway"
INDEX 01 00:00:00
FILE "03 - Re-Pyrrect.wav" WAVE
TRACK 03 AUDIO
TITLE "Re-Pyrrect"
PERFORMER "Michel Wintsch & Road Movie featuring Gerry Hemingway"
INDEX 01 00:00:00
FILE "04 - Play Time.wav" WAVE
TRACK 04 AUDIO
TITLE "Play Time"
PERFORMER "Michel Wintsch & Road Movie featuring Gerry Hemingway"
INDEX 01 00:00:00
FILE "05 - Italik part 1.wav" WAVE
TRACK 05 AUDIO
TITLE "Italik part 1"
PERFORMER "Michel Wintsch & Road Movie featuring Gerry Hemingway"
INDEX 01 00:00:00
FILE "06 - Italik part 2.wav" WAVE
TRACK 06 AUDIO
TITLE "Italik part 2"
PERFORMER "Michel Wintsch & Road Movie featuring Gerry Hemingway"
INDEX 01 00:00:00
FILE "07 - Hiver part 1.wav" WAVE
TRACK 07 AUDIO
TITLE "Hiver part 1"
PERFORMER "Michel Wintsch & Road Movie featuring Gerry Hemingway"
INDEX 01 00:00:00
FILE "08 - Hiver part 2.wav" WAVE
TRACK 08 AUDIO
TITLE "Hiver part 2"
PERFORMER "Michel Wintsch & Road Movie featuring Gerry Hemingway"
INDEX 01 00:00:00
FILE "09 - Natalia.wav" WAVE
TRACK 09 AUDIO
TITLE "Natalia"
PERFORMER "Michel Wintsch & Road Movie featuring Gerry Hemingway"
INDEX 01 00:00:00
FILE "10 - Chords.wav" WAVE
TRACK 10 AUDIO
TITLE "Chords"
PERFORMER "Michel Wintsch & Road Movie featuring Gerry Hemingway"
INDEX 01 00:00:00
FILE "11 - Trash Road.wav" WAVE
TRACK 11 AUDIO
TITLE "Trash Road"
PERFORMER "Michel Wintsch & Road Movie featuring Gerry Hemingway"
INDEX 01 00:00:00
FILE "12 - Le Chien du héros.wav" WAVE
TRACK 12 AUDIO
TITLE "Le Chien du héros"
PERFORMER "Michel Wintsch & Road Movie featuring Gerry Hemingway"
INDEX 01 00:00:00
Any questions -> support@pro-jazz.com. По всем вопросам пишите -> support@pro-jazz.com
17:14
224
Нет комментариев. Ваш будет первым!