Вы используете незарегистрированную версию компонента "Вкладки"!

Поиск

(Contemporary Jazz, Unit Records) Rosetta (Matthieu Michel, Yves Massy, Daniel Perrin, Pierre-Francois Massy, Marcel Papaux) - "Lune rousse" - 1997, FLAC (tracks+.cue), lossless

Треклист:
Rosetta / "Lune rousse"
Жанр: Contemporary Jazz, Unit Records
Страна-производитель диска: Switzerland
Год издания: 1997
Издатель (лейбл): Unit Records
Номер по каталогу: UTR 4093 CD
Аудиокодек: FLAC (*.flac)
Тип рипа: tracks+.cue
Битрейт аудио: lossless
Продолжительность: 52:17
Источник (релизер): Max Monteiro
Наличие сканов в содержимом раздачи: нет
Треклист:
01. Comme au théâtre / Encore vert 6:01
02. Contine 5:34
03. Nick Shadow 4:17
04. La Complainte du tricératops 8:31
05. Gli occhi grigi 6:27
06. Shanaze 4:31
07. Des clous, des vis et des agrafes 6:00
08. T for Tree 3:08
09. Les Heures de pointe 3:23
10. Lune rousse 4:27
Compositions de Pierre-François Massy.
Enregistré et mixé en juin 1995 au studio Village à Montpellier (France).
Matthieu Michel – bugle
Yves Massy – trombone
Daniel Perrin – accordéon, piano
Pierre-François Massy – contrebasse
Marcel Papaux – battterie
 
Лог создания рипа
Exact Audio Copy V1.0 beta 3 from 29. August 2011
EAC extraction logfile from 3. August 2013, 19:08
Rosetta / ''Lune rousse''
Used drive : SlimtypeeNAU508 5 Adapter: 1 ID: 0
Read mode : Secure
Utilize accurate stream : Yes
Defeat audio cache : Yes
Make use of C2 pointers : No
Read offset correction : 6
Overread into Lead-In and Lead-Out : No
Fill up missing offset samples with silence : Yes
Delete leading and trailing silent blocks : No
Null samples used in CRC calculations : Yes
Used interface : Native Win32 interface for Win NT & 2000
Gap handling : Appended to previous track
Used output format : User Defined Encoder
Selected bitrate : 768 kBit/s
Quality : High
Add ID3 tag : No
Command line compressor : C:\Program Files (x86)\Exact Audio Copy\Flac\flac.exe
Additional command line options : -8 -V -T "ARTIST=%artist%" -T "TITLE=%title%" -T "ALBUM=%albumtitle%" -T "DATE=%year%" -T "TRACKNUMBER=%tracknr%" -T "GENRE=%genre%" -T "PERFORMER=%albuminterpret%" -T "COMPOSER=%composer%" %haslyrics%--tag-from-file=LYRICS="%lyricsfile%"%haslyrics% -T "ALBUMARTIST=%albumartist%" -T "DISCNUMBER=%cdnumber%" -T "TOTALDISCS=%totalcds%" -T "TOTALTRACKS=%numtracks%" -T "COMMENT=%comment%" %source% -o %dest%
TOC of the extracted CD
Track | Start | Length | Start sector | End sector
---------------------------------------------------------
1 | 0:00.30 | 6:00.46 | 30 | 27075
2 | 6:01.01 | 5:33.50 | 27076 | 52100
3 | 11:34.51 | 4:16.51 | 52101 | 71351
4 | 15:51.27 | 8:30.56 | 71352 | 109657
5 | 24:22.08 | 6:27.00 | 109658 | 138682
6 | 30:49.08 | 4:31.19 | 138683 | 159026
7 | 35:20.27 | 5:59.69 | 159027 | 186020
8 | 41:20.21 | 3:08.09 | 186021 | 200129
9 | 44:28.30 | 3:22.52 | 200130 | 215331
10 | 47:51.07 | 4:26.52 | 215332 | 235333
Track 1
Filename C:\EAC rips\01 - Comme au théâtre - Encore vert.wav
Pre-gap length 0:00:02.30
Peak level 80.8 %
Extraction speed 1.1 X
Track quality 100.0 %
Test CRC 3D39749A
Copy CRC 3D39749A
Accurately ripped (confidence 1) [22F72978] (AR v2)
Copy OK
Track 2
Filename C:\EAC rips\02 - Contine.wav
Peak level 97.7 %
Extraction speed 1.2 X
Track quality 99.9 %
Test CRC 9E3697C0
Copy CRC 9E3697C0
Accurately ripped (confidence 1) [DB09C314] (AR v2)
Copy OK
Track 3
Filename C:\EAC rips\03 - Nick Shadow.wav
Peak level 56.4 %
Extraction speed 1.4 X
Track quality 100.0 %
Test CRC BF5D9CBB
Copy CRC BF5D9CBB
Accurately ripped (confidence 1) [926939AF] (AR v2)
Copy OK
Track 4
Filename C:\EAC rips\04 - La Complainte du tricératops.wav
Peak level 97.7 %
Extraction speed 1.6 X
Track quality 100.0 %
Test CRC E67BC239
Copy CRC E67BC239
Accurately ripped (confidence 1) [BD7C7CDE] (AR v2)
Copy OK
Track 5
Filename C:\EAC rips\05 - Gli cchi grigi.wav
Peak level 85.1 %
Extraction speed 1.7 X
Track quality 100.0 %
Test CRC E495179C
Copy CRC E495179C
Accurately ripped (confidence 1) [8D67293A] (AR v2)
Copy OK
Track 6
Filename C:\EAC rips\06 - Shanaze.wav
Peak level 97.7 %
Extraction speed 1.6 X
Track quality 99.9 %
Test CRC 6F1D8705
Copy CRC 6F1D8705
Accurately ripped (confidence 1) [0A02FA08] (AR v2)
Copy OK
Track 7
Filename C:\EAC rips\07 - Des clous, des vis et des agrafes.wav
Peak level 97.7 %
Extraction speed 1.9 X
Track quality 100.0 %
Test CRC 0D1ED662
Copy CRC 0D1ED662
Accurately ripped (confidence 1) [29BDA00A] (AR v2)
Copy OK
Track 8
Filename C:\EAC rips\08 - T for Tree.wav
Peak level 97.7 %
Extraction speed 1.8 X
Track quality 100.0 %
Test CRC D17EB47D
Copy CRC D17EB47D
Accurately ripped (confidence 1) [3295D21C] (AR v2)
Copy OK
Track 9
Filename C:\EAC rips\09 - Les Heures de pointe.wav
Peak level 97.7 %
Extraction speed 1.9 X
Track quality 100.0 %
Test CRC ACF93343
Copy CRC ACF93343
Accurately ripped (confidence 1) [0A9DBD9A] (AR v2)
Copy OK
Track 10
Filename C:\EAC rips\10 - Lune rousse.wav
Peak level 80.3 %
Extraction speed 2.0 X
Track quality 100.0 %
Test CRC 90C7667A
Copy CRC 90C7667A
Accurately ripped (confidence 1) [F8E01E79] (AR v2)
Copy OK
All tracks accurately ripped
No errors occurred
End of status report
---- CUETools DB Plugin V2.1.4
[CTDB TOCID: OVRS6RqWQJ.s1PI6WNIXJGLG1FY-] disk not present in database
Submit result: OVRS6RqWQJ.s1PI6WNIXJGLG1FY- has been uploaded
==== Log checksum BD628161864F49F61B8D339199FE506B9B8FC3CEB7C9E9EFD0E531AE0F62229E ====
 
Содержание индексной карты (.CUE)
REM GENRE Jazz
REM DATE 1997
REM DISCID 8C0C410A
REM COMMENT "ExactAudioCopy v1.0b3"
PERFORMER "Rosetta"
TITLE "''Lune rousse''"
FILE "01 - Comme au théâtre - Encore vert.wav" WAVE
TRACK 01 AUDIO
TITLE "Comme au théâtre / Encore vert"
PERFORMER "Rosetta"
PREGAP 00:00:30
INDEX 01 00:00:00
FILE "02 - Contine.wav" WAVE
TRACK 02 AUDIO
TITLE "Contine"
PERFORMER "Rosetta"
INDEX 01 00:00:00
FILE "03 - Nick Shadow.wav" WAVE
TRACK 03 AUDIO
TITLE "Nick Shadow"
PERFORMER "Rosetta"
INDEX 01 00:00:00
FILE "04 - La Complainte du tricératops.wav" WAVE
TRACK 04 AUDIO
TITLE "La Complainte du tricératops"
PERFORMER "Rosetta"
INDEX 01 00:00:00
FILE "05 - Gli occhi grigi.wav" WAVE
TRACK 05 AUDIO
TITLE "Gli occhi grigi"
PERFORMER "Rosetta"
INDEX 01 00:00:00
FILE "06 - Shanaze.wav" WAVE
TRACK 06 AUDIO
TITLE "Shanaze"
PERFORMER "Rosetta"
INDEX 01 00:00:00
FILE "07 - Des clous, des vis et des agrafes.wav" WAVE
TRACK 07 AUDIO
TITLE "Des clous, des vis et des agrafes"
PERFORMER "Rosetta"
INDEX 01 00:00:00
FILE "08 - T for Tree.wav" WAVE
TRACK 08 AUDIO
TITLE "T for Tree"
PERFORMER "Rosetta"
INDEX 01 00:00:00
FILE "09 - Les Heures de pointe.wav" WAVE
TRACK 09 AUDIO
TITLE "Les Heures de pointe"
PERFORMER "Rosetta"
INDEX 01 00:00:00
FILE "10 - Lune rousse.wav" WAVE
TRACK 10 AUDIO
TITLE "Lune rousse"
PERFORMER "Rosetta"
INDEX 01 00:00:00
Any questions -> support@pro-jazz.com. По всем вопросам пишите -> support@pro-jazz.com
17:15
160
Нет комментариев. Ваш будет первым!