Вы используете незарегистрированную версию компонента "Вкладки"!

Поиск

(Avant-Garde, Free Jazz, Enja Records) Cecil Taylor & Italian Instabile Orchestra - The Owner of the River Bank - 2003, FLAC (tracks+.cue), lossless

Треклист:
Cecil Taylor & Italian Instabile Orchestra / The Owner of the River Bank
Жанр: Avant-Garde, Free Jazz, Enja Records
Страна-производитель диска: Germany
Год издания: 2003
Издатель (лейбл): Enja Records
Номер по каталогу: ENJ-9465 2
Аудиокодек: FLAC (*.flac)
Тип рипа: tracks+.cue
Битрейт аудио: lossless
Продолжительность: 1:00:28
Источник (релизер): Max Monteiro
Наличие сканов в содержимом раздачи: да
Треклист:
1. The Owner of the River Bank 6:57
2. The Owner of the River Bank 11:22
3. The Owner of the River Bank 12:29
4. The Owner of the River Bank 3:37
5. The Owner of the River Bank 11:29
6. The Owner of the River Bank 8:21
7. The Owner of the River Bank 6:12
Composed by Cecil Taylor.
Recorded live during the second of two concerts given to celebrate the first ten years of the Italian Instabile Orchestra as part of the Talos Festival in Ruvo di Puglia (South Italy) on 10th September 2000.
Cecil Taylor – Piano & Voice
& Italian Instabile Orchestra :
Carlo Actis Dato – Bass Clarinet & Voice
Luca Calabrese – Trumpet & Voice
Daniele Cavallanti – Tenor Sax & Voice
Eugenio Colombo – Flute, Sopranino Sax & Voice
Paolo Damiani – Cello & Voice
Renato Geremia – Violin & Voice
Giovanni Maier – Double Bass & Voice
Alberto Mandarini – Trumpet & Voice
Martin Mayes – Horn & Voice
Guido Mazzon – Trumpet & Voice
Vincenzo Mazzone – Drums, Tympani & Voice
Umberto Petrin – Piano & Voice
Lauro Rossi – Trombone & Voice
Giancarlo Schiaffini – Trombone & Voice
Mario Schiano – Soprano Sax, Alto Sax & Voice
Tiziano Tononi – Drums, Percussion & Vooice
Sebi Tramontana – Trombone & Voice
Gianluigi Trovesi – Alto Sax & Voice
 
Лог создания рипа
Exact Audio Copy V1.0 beta 3 from 29. August 2011
EAC extraction logfile from 26. July 2013, 19:56
Cecil Taylor & Italian Instabile Orchestra / The Owner of the River Bank
Used drive : SlimtypeeNAU508 5 Adapter: 1 ID: 0
Read mode : Secure
Utilize accurate stream : Yes
Defeat audio cache : Yes
Make use of C2 pointers : No
Read offset correction : 6
Overread into Lead-In and Lead-Out : No
Fill up missing offset samples with silence : Yes
Delete leading and trailing silent blocks : No
Null samples used in CRC calculations : Yes
Used interface : Native Win32 interface for Win NT & 2000
Gap handling : Appended to previous track
Used output format : User Defined Encoder
Selected bitrate : 768 kBit/s
Quality : High
Add ID3 tag : No
Command line compressor : C:\Program Files (x86)\Exact Audio Copy\Flac\flac.exe
Additional command line options : -8 -V -T "ARTIST=%artist%" -T "TITLE=%title%" -T "ALBUM=%albumtitle%" -T "DATE=%year%" -T "TRACKNUMBER=%tracknr%" -T "GENRE=%genre%" -T "PERFORMER=%albuminterpret%" -T "COMPOSER=%composer%" %haslyrics%--tag-from-file=LYRICS="%lyricsfile%"%haslyrics% -T "ALBUMARTIST=%albumartist%" -T "DISCNUMBER=%cdnumber%" -T "TOTALDISCS=%totalcds%" -T "TOTALTRACKS=%numtracks%" -T "COMMENT=%comment%" %source% -o %dest%
TOC of the extracted CD
Track | Start | Length | Start sector | End sector
---------------------------------------------------------
1 | 0:00.00 | 6:56.71 | 0 | 31270
2 | 6:56.71 | 11:21.46 | 31271 | 82391
3 | 18:18.42 | 12:29.21 | 82392 | 138587
4 | 30:47.63 | 3:37.01 | 138588 | 154863
5 | 34:24.64 | 11:29.34 | 154864 | 206572
6 | 45:54.23 | 8:21.35 | 206573 | 244182
7 | 54:15.58 | 6:12.15 | 244183 | 272097
8 | 62:59.73 | 6:51.29 | 283498 | 314351
Track 1
Filename C:\EAC rips\01 - The Owner of the River Bank.wav
Pre-gap length 0:00:02.00
Peak level 99.9 %
Extraction speed 1.2 X
Track quality 100.0 %
Test CRC 49C60E2C
Copy CRC 49C60E2C
Accurately ripped (confidence 2) [62922D5C] (AR v2)
Copy OK
Track 2
Filename C:\EAC rips\02 - The Owner of the River Bank.wav
Peak level 99.9 %
Extraction speed 1.4 X
Track quality 99.9 %
Test CRC 13482183
Copy CRC 13482183
Accurately ripped (confidence 2) [035CD888] (AR v2)
Copy OK
Track 3
Filename C:\EAC rips\03 - The Owner of the River Bank.wav
Peak level 99.9 %
Extraction speed 1.8 X
Track quality 100.0 %
Test CRC E7F342C6
Copy CRC E7F342C6
Accurately ripped (confidence 2) [BD242FD1] (AR v2)
Copy OK
Track 4
Filename C:\EAC rips\04 - The Owner of the River Bank.wav
Peak level 89.2 %
Extraction speed 1.7 X
Track quality 100.0 %
Test CRC EFF9A13D
Copy CRC EFF9A13D
Accurately ripped (confidence 2) [128744B7] (AR v2)
Copy OK
Track 5
Filename C:\EAC rips\05 - The Owner of the River Bank.wav
Peak level 99.9 %
Extraction speed 2.1 X
Track quality 100.0 %
Test CRC 46E579E5
Copy CRC 46E579E5
Accurately ripped (confidence 2) [64A8B149] (AR v2)
Copy OK
Track 6
Filename C:\EAC rips\06 - The Owner of the River Bank.wav
Peak level 99.9 %
Extraction speed 2.2 X
Track quality 100.0 %
Test CRC 0B0DC318
Copy CRC 0B0DC318
Accurately ripped (confidence 2) [8D444D3D] (AR v2)
Copy OK
Track 7
Filename C:\EAC rips\07 - The Owner of the River Bank.wav
Peak level 97.5 %
Extraction speed 2.1 X
Track quality 99.9 %
Test CRC F9643FA3
Copy CRC F9643FA3
Accurately ripped (confidence 2) [521BE03F] (AR v2)
Copy OK
All tracks accurately ripped
No errors occurred
End of status report
---- CUETools DB Plugin V2.1.4
[CTDB TOCID: 1XQtAfZyMUSOw4kmhy87UFkIn8Q-] found
Submit result: 1XQtAfZyMUSOw4kmhy87UFkIn8Q- has been confirmed
Track | CTDB Status
1 | (1/1) Accurately ripped
2 | (1/1) Accurately ripped
3 | (1/1) Accurately ripped
4 | (1/1) Accurately ripped
5 | (1/1) Accurately ripped
6 | (1/1) Accurately ripped
7 | (1/1) Accurately ripped
==== Log checksum 09BACF8E4577203315B1400144331411E2E7556E826E3147720BD6202B33E5B3 ====
 
Содержание индексной карты (.CUE)
REM GENRE Jazz
REM DATE 2003
REM DISCID 6D105F08
REM COMMENT "ExactAudioCopy v1.0b3"
PERFORMER "Cecil Taylor & Italian Instabile Orchestra"
TITLE "The Owner of the River Bank"
FILE "01 - The Owner of the River Bank.wav" WAVE
TRACK 01 AUDIO
TITLE "The Owner of the River Bank"
PERFORMER "Cecil Taylor & Italian Instabile Orchestra"
ISRC DEA590306501
INDEX 01 00:00:00
FILE "02 - The Owner of the River Bank.wav" WAVE
TRACK 02 AUDIO
TITLE "The Owner of the River Bank"
PERFORMER "Cecil Taylor & Italian Instabile Orchestra"
ISRC DEA590306502
INDEX 01 00:00:00
FILE "03 - The Owner of the River Bank.wav" WAVE
TRACK 03 AUDIO
TITLE "The Owner of the River Bank"
PERFORMER "Cecil Taylor & Italian Instabile Orchestra"
ISRC DEA590306503
INDEX 01 00:00:00
FILE "04 - The Owner of the River Bank.wav" WAVE
TRACK 04 AUDIO
TITLE "The Owner of the River Bank"
PERFORMER "Cecil Taylor & Italian Instabile Orchestra"
ISRC DEA590306504
INDEX 01 00:00:00
FILE "05 - The Owner of the River Bank.wav" WAVE
TRACK 05 AUDIO
TITLE "The Owner of the River Bank"
PERFORMER "Cecil Taylor & Italian Instabile Orchestra"
ISRC DEA590306505
INDEX 01 00:00:00
FILE "06 - The Owner of the River Bank.wav" WAVE
TRACK 06 AUDIO
TITLE "The Owner of the River Bank"
PERFORMER "Cecil Taylor & Italian Instabile Orchestra"
ISRC DEA590306506
INDEX 01 00:00:00
FILE "07 - The Owner of the River Bank.wav" WAVE
TRACK 07 AUDIO
TITLE "The Owner of the River Bank"
PERFORMER "Cecil Taylor & Italian Instabile Orchestra"
ISRC DEA590306507
INDEX 01 00:00:00
TRACK 08 MODEx/2xxx
TITLE "[data track]"
PERFORMER "Cecil Taylor & Italian Instabile Orchestra"
INDEX 00 06:12:15
По всем вопросам пишите личное сообщение пользователю M0p94ok.
17:16
140
Нет комментариев. Ваш будет первым!