Вы используете незарегистрированную версию компонента "Вкладки"!

Поиск

(Free Jazz, Modern Creative, Hat Hut) Theo Jorgensmann & Eckard Koltermann - Pagine Gialle - 2001, FLAC (image+.cue), lossless

(Free Jazz, Modern Creative, Hat Hut) Theo Jorgensmann & Eckard Koltermann - Pagine Gialle - 2001, FLAC (image+.cue), lossless
Треклист:
Theo Jorgensmann & Eckard Koltermann / Pagine Gialle
Жанр: Free Jazz, Modern Creative
Страна-производитель диска: Switzerland
Год издания диска: 2001
Издатель (лейбл): Hat Hut
Номер по каталогу: hatOLOGY 553
Страна: Germany
Аудиокодек: FLAC (*.flac)
Тип рипа: image+.cue
Битрейт аудио: lossless
Продолжительность: 51:27
Источник (релизер): CD
Наличие сканов в содержимом раздачи: да
Треклист:
01 - Part I
02 - Part II
03 - Part III
04 - Part IV
05 - Part VI
 
Лог создания рипа
Exact Audio Copy V1.0 beta 2 from 29. April 2011
EAC extraction logfile from 22. July 2011, 15:29
Theo Joergensmann & Eckard Koltermann / Pagine Gialle
Used drive : Optiarc DVD RW AD-7240S Adapter: 2 ID: 0
Read mode : Secure
Utilize accurate stream : Yes
Defeat audio cache : Yes
Make use of C2 pointers : No
Read offset correction : 48
Overread into Lead-In and Lead-Out : No
Fill up missing offset samples with silence : Yes
Delete leading and trailing silent blocks : No
Null samples used in CRC calculations : Yes
Used interface : Native Win32 interface for Win NT & 2000
Used output format : User Defined Encoder
Selected bitrate : 768 kBit/s
Quality : High
Add ID3 tag : No
Command line compressor : C:\Program Files\Exact Audio Copy\FLAC\FLAC.EXE
Additional command line options : -6 -V -T "ARTIST=%artist%" -T "TITLE=%title%" -T "ALBUM=%albumtitle%" -T "DATE=%year%" -T "TRACKNUMBER=%tracknr%" -T "GENRE=%genre%" -T "COMMENT=%comment%" -T "BAND=%albuminterpret%" -T "COMPOSER=%composer%" %haslyrics%--ta
TOC of the extracted CD
Track | Start | Length | Start sector | End sector
---------------------------------------------------------
1 | 0:00.00 | 9:34.62 | 0 | 43111
2 | 9:34.62 | 15:37.00 | 43112 | 113386
3 | 25:11.62 | 11:32.00 | 113387 | 165286
4 | 36:43.62 | 9:08.00 | 165287 | 206386
5 | 45:51.62 | 5:35.13 | 206387 | 231524
Range status and errors
Selected range
Filename C:\Documents and Settings\User\Мои документы\Theo Joergensmann & Eckard Koltermann - Pagine Gialle (2001)\Theo Joergensmann & Eckard Koltermann - Pagine Gialle.wav
Peak level 98.7 %
Extraction speed 3.8 X
Range quality 100.0 %
Test CRC 24EB7FA3
Copy CRC 24EB7FA3
Copy OK
No errors occurred
AccurateRip summary
Track 1 accurately ripped (confidence 2) [0DC594E2] (AR v1)
Track 2 accurately ripped (confidence 2) [D4E3C2CD] (AR v1)
Track 3 accurately ripped (confidence 2) [2114F09E] (AR v1)
Track 4 accurately ripped (confidence 2) [EA48B463] (AR v1)
Track 5 accurately ripped (confidence 2) [F68FC346] (AR v1)
All tracks accurately ripped
End of status report
==== Log checksum 16E182C90FA47E6F92B6D5F34A1C68D84763BB53A78DC01C5968EFA9435E008F ====
 
Содержание индексной карты (.CUE)
REM GENRE Jazz
REM DATE 2001
REM DISCID 380C0F05
REM COMMENT "ExactAudioCopy v1.0b2"
PERFORMER "Theo Joergensmann & Eckard Koltermann"
TITLE "Pagine Gialle"
FILE "Theo Joergensmann & Eckard Koltermann - Pagine Gialle.flac" WAVE
TRACK 01 AUDIO
TITLE "Part I"
PERFORMER "Theo Joergensmann & Eckard Koltermann"
ISRC CH1310000213
INDEX 01 00:00:00
TRACK 02 AUDIO
TITLE "Part II"
PERFORMER "Theo Joergensmann & Eckard Koltermann"
ISRC CH1310000214
INDEX 01 09:34:62
TRACK 03 AUDIO
TITLE "Part III"
PERFORMER "Theo Joergensmann & Eckard Koltermann"
ISRC CH1310000215
INDEX 01 25:11:62
TRACK 04 AUDIO
TITLE "Part IV"
PERFORMER "Theo Joergensmann & Eckard Koltermann"
ISRC CH1310000216
INDEX 01 36:43:62
TRACK 05 AUDIO
TITLE "Part V"
PERFORMER "Theo Joergensmann & Eckard Koltermann"
ISRC CH1310000217
INDEX 01 45:51:62
 
Об альбоме (сборнике)
It may not be easy to conceptualize a full-length recording of largely freely improvised music by only a clarinetist and bass clarinetist - even when the duo is as accomplished as Theo Jörgensmann and Eckard Koltermann. There are no attempts here to impress with virtuosity or advanced technique, although it is evident early on that these are both talented reed players. What this album is about and make no mistake, it is fully a joint effort, co-led by each - is the relationships of sounds, the effect of space, and the subtleties of color. Peter Niklas Wilson wisely comments in the liner notes that this is "third stream" in the best sense of the word (and not in the way the phrase has sometimes disparagingly come to mean): It successfully blends seemingly disparate cultures in a modern setting, not by fusing them, but by exploiting pieces that fit. If the results are sometimes disturbing, they are just as often quiet and simple, with a comforting completeness to it all. While the natural limitations of two similar tonal orbits are not entirely overcome, there is nonetheless plenty here to savor. ~ Steven Loewy
 
Состав
Theo Jörgensmann - clarinet
Eckard Koltermann - bass clarinet
Any questions -> support@pro-jazz.com. По всем вопросам пишите -> support@pro-jazz.com
15:28
280
Нет комментариев. Ваш будет первым!