Вы используете незарегистрированную версию компонента "Вкладки"!

Поиск

(Free Jazz, Avant-garde, Free Improvisation, Intakt Records) Elliott Sharp & Guitarists - 'Dyners Club - 1994, FLAC (tracks+.cue), lossless

(Free Jazz, Avant-garde, Free Improvisation, Intakt Records) Elliott Sharp & Guitarists - 'Dyners Club - 1994, FLAC (tracks+.cue), lossless
Издатель (лейбл):
Треклист:
Elliott Sharp + Guitarists / 'Dyners Club
Жанр: Free Jazz, Avant-garde, Free Improvisation
Страна-производитель диска: Switzerland
Год издания диска: 1994
Издатель (лейбл): Intakt Records
Номер по каталогу: Intakt CD 036
Аудиокодек: FLAC (*.flac)
Тип рипа: tracks+.cue
Битрейт аудио: lossless
Продолжительность: 49:22
Источник (релизер): whatcd/weareborg
Наличие сканов в содержимом раздачи: нет
Треклист:
1 Jitters 6:36
2 What It Isn't 3:28
3 Blur 4:14
4 Zappin' The Pram 17:22
5 Chomper 5:00
6 Kludge 1:55
7 Residue 7:15
8 Flowtest 3:23
 
Лог создания рипа
Exact Audio Copy V0.99 prebeta 4 from 23. January 2008
EAC extraction logfile from 11. October 2008, 2:14
Elliott Sharp / 'Dyners Club
Used drive : Optiarc DVD RW AD-7200A Adapter: 0 ID: 3
Read mode : Secure
Utilize accurate stream : Yes
Defeat audio cache : Yes
Make use of C2 pointers : No
Read offset correction : 48
Overread into Lead-In and Lead-Out : No
Fill up missing offset samples with silence : Yes
Delete leading and trailing silent blocks : No
Null samples used in CRC calculations : Yes
Used interface : Installed external ASPI interface
Gap handling : Appended to previous track
Used output format : User Defined Encoder
Selected bitrate : 640 kBit/s
Quality : High
Add ID3 tag : No
Command line compressor : C:\Program Files\Exact Audio Copy\flac.exe
Additional command line options : • -8 -A tukey(0.25) -A gauss(0.1875) -b 4096 -V -T "artist=%a" -T "title=%t" -T "album=%g" -T "date=%y" -T "tracknumber=%n" -T "genre=%m" %s --sector-align
TOC of the extracted CD
Track | Start | Length | Start sector | End sector
---------------------------------------------------------
1 | 0:00.00 | 6:36.25 | 0 | 29724
2 | 6:36.25 | 3:28.13 | 29725 | 45337
3 | 10:04.38 | 4:15.37 | 45338 | 64499
4 | 14:20.00 | 17:24.40 | 64500 | 142839
5 | 31:44.40 | 5:00.23 | 142840 | 165362
6 | 36:44.63 | 1:55.65 | 165363 | 174052
7 | 38:40.53 | 7:19.10 | 174053 | 206987
8 | 45:59.63 | 3:22.65 | 206988 | 222202
Track 1
Filename H:\Elliott Sharp - 'Dyners Club\01 - Elliott Sharp - Jitters .wav
Pre-gap length 0:00:02.00
Peak level 75.7 %
Track quality 100.0 %
Test CRC 9E68868C
Copy CRC 9E68868C
Track not present in AccurateRip database
Copy OK
Track 2
Filename H:\Elliott Sharp - 'Dyners Club\02 - Elliott Sharp - What It Isn't .wav
Peak level 99.4 %
Track quality 100.0 %
Test CRC 0703BBA6
Copy CRC 0703BBA6
Track not present in AccurateRip database
Copy OK
Track 3
Filename H:\Elliott Sharp - 'Dyners Club\03 - Elliott Sharp - Blur .wav
Peak level 99.8 %
Track quality 100.0 %
Test CRC 4460912C
Copy CRC 4460912C
Track not present in AccurateRip database
Copy OK
Track 4
Filename H:\Elliott Sharp - 'Dyners Club\04 - Elliott Sharp - Zappin' The Pram .wav
Peak level 96.5 %
Track quality 100.0 %
Test CRC 05B549BC
Copy CRC 05B549BC
Track not present in AccurateRip database
Copy OK
Track 5
Filename H:\Elliott Sharp - 'Dyners Club\05 - Elliott Sharp - Chomper .wav
Peak level 88.4 %
Track quality 100.0 %
Test CRC F352427F
Copy CRC F352427F
Track not present in AccurateRip database
Copy OK
Track 6
Filename H:\Elliott Sharp - 'Dyners Club\06 - Elliott Sharp - Kludge .wav
Peak level 55.8 %
Track quality 99.9 %
Test CRC 522C09DA
Copy CRC 522C09DA
Track not present in AccurateRip database
Copy OK
Track 7
Filename H:\Elliott Sharp - 'Dyners Club\07 - Elliott Sharp - Residue .wav
Peak level 98.8 %
Track quality 100.0 %
Test CRC 9E781380
Copy CRC 9E781380
Track not present in AccurateRip database
Copy OK
Track 8
Filename H:\Elliott Sharp - 'Dyners Club\08 - Elliott Sharp - Flowtest .wav
Peak level 85.1 %
Track quality 99.9 %
Test CRC A8B5467D
Copy CRC A8B5467D
Track not present in AccurateRip database
Copy OK
None of the tracks are present in the AccurateRip database
No errors occurred
End of status report
 
Содержание индексной карты (.CUE)
REM GENRE
REM DATE
REM DISCID 650B9208
PERFORMER "Elliott Sharp"
TITLE "'Dyners Club"
FILE "01 Jitters.flac" WAVE
TRACK 01 AUDIO
TITLE "Jitters"
PERFORMER "Elliott Sharp"
INDEX 01 00:00:00
FILE "02 What It Isn't.flac" WAVE
TRACK 02 AUDIO
TITLE "What It Isn't"
PERFORMER "Elliott Sharp"
INDEX 01 00:00:00
FILE "03 Blur.flac" WAVE
TRACK 03 AUDIO
TITLE "Blur"
PERFORMER "Elliott Sharp"
INDEX 01 00:00:00
FILE "04 Zappin' The Pram.flac" WAVE
TRACK 04 AUDIO
TITLE "Zappin' The Pram"
PERFORMER "Elliott Sharp"
INDEX 01 00:00:00
FILE "05 Chomper.flac" WAVE
TRACK 05 AUDIO
TITLE "Chomper"
PERFORMER "Elliott Sharp"
INDEX 01 00:00:00
FILE "06 Kludge.flac" WAVE
TRACK 06 AUDIO
TITLE "Kludge"
PERFORMER "Elliott Sharp"
INDEX 01 00:00:00
FILE "07 Residue.flac" WAVE
TRACK 07 AUDIO
TITLE "Residue"
PERFORMER "Elliott Sharp"
INDEX 01 00:00:00
FILE "08 Flowtest.flac" WAVE
TRACK 08 AUDIO
TITLE "Flowtest"
PERFORMER "Elliott Sharp"
INDEX 01 00:00:00
 
Состав
Composed By, Producer – Elliott Sharp
Design [Cover] – Janene Higgins
Engineer – Bryce Goggin
Executive Producer – Fredi Bosshard
Guitar – David Mecionis, Elliott Sharp, John Myers, Roger Kleier
Any questions -> support@pro-jazz.com. По всем вопросам пишите -> support@pro-jazz.com
15:28
145
Нет комментариев. Ваш будет первым!