Вы используете незарегистрированную версию компонента "Вкладки"!

Поиск

(Free Jazz, Modern Creative, Hat Hut) Theo Jorgensmann Quartet / To Ornette - Hybrid Identity - 2002, FLAC (image+.cue), lossless

Треклист:
Theo Jorgensmann Quartet / To Ornette - Hybrid Identity
Жанр: Free Jazz, Modern Creative
Страна-производитель диска: Switzerland
Год издания диска: 2002
Издатель (лейбл): Hat Hut
Номер по каталогу: hatOLOGY 576
Страна: Germany
Аудиокодек: FLAC (*.flac)
Тип рипа: image+.cue
Битрейт аудио: lossless
Продолжительность: 52:54
Источник (релизер): CD
Наличие сканов в содержимом раздачи: да
Треклист:
01 - Mr. Vertigo (7:24)
02 - On Unsafe Roads (10:15)
03 - Hybrid Identity (4:52)
04 - Poème (5:30)
05 - Rainer Rumpel (7:36)
06 - Sisu (5:42)
07 - Veneta (6:46)
08 - Greatings To Ornette (4:48)
 
Лог создания рипа
Exact Audio Copy V1.0 beta 2 from 29. April 2011
EAC extraction logfile from 22. July 2011, 9:43
Theo Jorgensmann Quartet / To Ornette - Hybrid Identity
Used drive : Optiarc DVD RW AD-7240S Adapter: 2 ID: 0
Read mode : Secure
Utilize accurate stream : Yes
Defeat audio cache : Yes
Make use of C2 pointers : No
Read offset correction : 48
Overread into Lead-In and Lead-Out : No
Fill up missing offset samples with silence : Yes
Delete leading and trailing silent blocks : No
Null samples used in CRC calculations : Yes
Used interface : Native Win32 interface for Win NT & 2000
Used output format : User Defined Encoder
Selected bitrate : 768 kBit/s
Quality : High
Add ID3 tag : No
Command line compressor : C:\Program Files\Exact Audio Copy\FLAC\FLAC.EXE
Additional command line options : -6 -V -T "ARTIST=%artist%" -T "TITLE=%title%" -T "ALBUM=%albumtitle%" -T "DATE=%year%" -T "TRACKNUMBER=%tracknr%" -T "GENRE=%genre%" -T "COMMENT=%comment%" -T "BAND=%albuminterpret%" -T "COMPOSER=%composer%" %haslyrics%--ta
TOC of the extracted CD
Track | Start | Length | Start sector | End sector
---------------------------------------------------------
1 | 0:00.00 | 7:24.62 | 0 | 33361
2 | 7:24.62 | 10:15.00 | 33362 | 79486
3 | 17:39.62 | 4:52.00 | 79487 | 101386
4 | 22:31.62 | 5:30.00 | 101387 | 126136
5 | 28:01.62 | 7:36.00 | 126137 | 160336
6 | 35:37.62 | 5:42.00 | 160337 | 185986
7 | 41:19.62 | 6:46.00 | 185987 | 216436
8 | 48:05.62 | 4:48.13 | 216437 | 238049
Range status and errors
Selected range
Filename C:\Documents and Settings\User\Мои документы\Theo Jorgensmann Quartet - To Ornette - Hybrid Identity (2002)\Theo Jorgensmann Quartet - To Ornette - Hybrid Identity.wav
Peak level 99.3 %
Extraction speed 3.8 X
Range quality 100.0 %
Test CRC 6D8A47AB
Copy CRC 6D8A47AB
Copy OK
No errors occurred
AccurateRip summary
Track 1 accurately ripped (confidence 2) [0810B872] (AR v1)
Track 2 accurately ripped (confidence 2) [4E1148E1] (AR v1)
Track 3 accurately ripped (confidence 2) [AC757EE1] (AR v1)
Track 4 accurately ripped (confidence 2) [193E0213] (AR v1)
Track 5 accurately ripped (confidence 2) [D3C1D289] (AR v1)
Track 6 accurately ripped (confidence 2) [6E1BDC8D] (AR v1)
Track 7 accurately ripped (confidence 2) [FBEF0885] (AR v1)
Track 8 accurately ripped (confidence 2) [BE82AB3D] (AR v1)
All tracks accurately ripped
End of status report
==== Log checksum F9F4FDAC011C50D27070E35BADEFB20CAD118971CE67CB752AB902D646B8B826 ====
 
Содержание индексной карты (.CUE)
REM GENRE Jazz
REM DATE 2002
REM DISCID 6D0C6608
REM COMMENT "ExactAudioCopy v1.0b2"
PERFORMER "Theo Jorgensmann Quartet"
TITLE "To Ornette - Hybrid Identity"
FILE "Theo Jorgensmann Quartet - To Ornette - Hybrid Identity.flac" WAVE
TRACK 01 AUDIO
TITLE "Mr. Vertigo"
PERFORMER "Theo Jorgensmann Quartet"
ISRC CH1310100426
INDEX 01 00:00:00
TRACK 02 AUDIO
TITLE "On Unsafe Roads"
PERFORMER "Theo Jorgensmann Quartet"
ISRC CH1310100427
INDEX 01 07:24:62
TRACK 03 AUDIO
TITLE "Hybrid Identity"
PERFORMER "Theo Jorgensmann Quartet"
ISRC CH1310100428
INDEX 01 17:39:62
TRACK 04 AUDIO
TITLE "Poeme"
PERFORMER "Theo Jorgensmann Quartet"
ISRC CH1310100429
INDEX 01 22:31:62
TRACK 05 AUDIO
TITLE "Rainer Rumpel"
PERFORMER "Theo Jorgensmann Quartet"
ISRC CH1310100430
INDEX 01 28:01:62
TRACK 06 AUDIO
TITLE "Sisu"
PERFORMER "Theo Jorgensmann Quartet"
ISRC CH1310100431
INDEX 01 35:37:62
TRACK 07 AUDIO
TITLE "Veneta"
PERFORMER "Theo Jorgensmann Quartet"
ISRC CH1310100432
INDEX 01 41:19:62
TRACK 08 AUDIO
TITLE "Greetings To Ornette"
PERFORMER "Theo Jorgensmann Quartet"
ISRC CH1310100433
INDEX 01 48:05:62
 
Об альбоме (сборнике)
Although the relationship between Ornette Coleman and Theo Jörgensmann might at first blush seem somewhat tenuous, Peter Niklas Wilson argues convincingly in his liner notes that the spirit of Ornette is central to this music. While the album is dedicated to Ornette, none of his tunes are played, and the instrumentation bears little resemblance to his. Still, with the focus on melody (as a tool, not an end), the openness of time, the diversity of approaches within a single song, and the willingness to embrace unusual yet logical paths, Jörgensmann absorbs the legacy of Ornette in a way that might not at first be obvious. This is a tightly performed set of compositions in which the clarinetist's mastery of his horn leads him to flirt with the edges where free jazz meets hard bop. Jörgensmann has previously proved his virtuosic skills, and they are here in large doses, but this recording is not about jamming the changes or proving one's virility. This can be complex music, where a lightness of being intersects varied harmonies, and it can also be invigorating fare. Christopher Dell's vibes color the tonalities with a delicacy of being, though the results will never be mistaken as jazz-lite. At times, To Ornette - Hybrid Identity might seem atmospheric but not for long. Throughout there is a seriousness to it that begs the listener to concentrate closely, as there are layers of mystery to be peeled away.
 
Состав
Theo Jörgensmann - Bb bassett clarinet
Christopher Dell - vibes
Christian Ramond - double bass
Klaus Kugel - drums
По всем вопросам пишите личное сообщение пользователю M0p94ok.
15:27
182
Нет комментариев. Ваш будет первым!