Вы используете незарегистрированную версию компонента "Вкладки"!

Поиск

(Free Jazz, Modern Creative) [CD] Jazz Composers Alliance Saxophone Quartet Plays The Music Of Darrell Katz - I'm Me And You're Not - 1999, FLAC (tracks+.cue), lossless

(Free Jazz, Modern Creative) [CD] Jazz Composers Alliance Saxophone Quartet Plays The Music Of Darrell Katz - I'm Me And You're Not - 1999, FLAC (tracks+.cue), lossless
Треклист:
Jazz Composers Alliance Saxophone Quartet Plays The Music Of Darrell Katz / I'm Me And You're Not
Жанр: Free Jazz, Modern Creative
Носитель: CD
Страна-производитель диска: US
Год издания: 1999
Издатель (лейбл): Brownstone Recordings
Номер по каталогу: BRCD 9906
Страна: US
Аудиокодек: FLAC (*.flac)
Тип рипа: tracks+.cue
Битрейт аудио: lossless
Продолжительность: 66:39
Источник (релизер): свой фирменный диск
Наличие сканов в содержимом раздачи:
Треклист:
1. Belly Button Window
2. Hemphill I. Texas
3. Hemphill II. Perfumed Globes
4. Hemphill III. Julius
5. Hemphill IV. Red Blue
6. The Red Blues
7. I'm Me And You're Not (Ha Ha)
8. Gerbils
9. Street Of Shoes
10. Like A Wind
11. The Train And The River
12. Sheer
13. R&B
 
Лог создания рипа
Exact Audio Copy V1.0 beta 3 from 29. August 2011
EAC extraction logfile from 29. June 2014, 20:22
Jazz Composers Alliance Saxophone Quartet / I'm Me And You're Not (The Music Of Darrell Katz)
Used drive : PIONEER DVD-RW DVR-115D Adapter: 0 ID: 0
Read mode : Secure
Utilize accurate stream : Yes
Defeat audio cache : Yes
Make use of C2 pointers : No
Read offset correction : 48
Overread into Lead-In and Lead-Out : No
Fill up missing offset samples with silence : Yes
Delete leading and trailing silent blocks : No
Null samples used in CRC calculations : Yes
Used interface : Installed external ASPI interface
Gap handling : Appended to previous track
Used output format : User Defined Encoder
Selected bitrate : 896 kBit/s
Quality : High
Add ID3 tag : No
Command line compressor : C:\Program Files\Exact Audio Copy\FLAC\FLAC.EXE
Additional command line options : -6 -V -T "ARTIST=%artist%" -T "TITLE=%title%" -T "ALBUM=%albumtitle%" -T "DATE=%year%" -T "TRACKNUMBER=%tracknr%" -T "GENRE=%genre%" -T "COMMENT=%comment%" -T "BAND=%albuminterpret%" -T "COMPOSER=%composer%" %haslyrics%--tag-from-file=LYRICS="%lyricsfile%"%haslyrics% -T "DISCNUMBER=%cdnumber%" -T "TOTALDISCS=%totalcds%" -T "TOTALTRACKS=%numtracks%" %hascover%--picture="%coverfile%"%hascover% %source% -o %dest%
TOC of the extracted CD
Track | Start | Length | Start sector | End sector
---------------------------------------------------------
1 | 0:00.00 | 7:42.31 | 0 | 34680
2 | 7:42.31 | 5:12.51 | 34681 | 58131
3 | 12:55.07 | 3:42.04 | 58132 | 74785
4 | 16:37.11 | 3:15.62 | 74786 | 89472
5 | 19:52.73 | 4:12.30 | 89473 | 108402
6 | 24:05.28 | 6:40.54 | 108403 | 138456
7 | 30:46.07 | 11:32.46 | 138457 | 190402
8 | 42:18.53 | 3:19.42 | 190403 | 205369
9 | 45:38.20 | 4:10.41 | 205370 | 224160
10 | 49:48.61 | 5:15.61 | 224161 | 247846
11 | 55:04.47 | 5:30.49 | 247847 | 272645
12 | 60:35.21 | 2:13.41 | 272646 | 282661
13 | 62:48.62 | 3:50.21 | 282662 | 299932
Track 1
Filename D:\zzz\01 - Belly Button Window.wav
Pre-gap length 0:00:02.00
Peak level 96.6 %
Extraction speed 5.0 X
Track quality 100.0 %
Test CRC A8985CC7
Copy CRC A8985CC7
Track not present in AccurateRip database
Copy OK
Track 2
Filename D:\zzz\02 - Hemphill (I. Texas).wav
Peak level 95.4 %
Extraction speed 5.5 X
Track quality 100.0 %
Test CRC 4CA8E4D2
Copy CRC 4CA8E4D2
Track not present in AccurateRip database
Copy OK
Track 3
Filename D:\zzz\03 - Hemphill (II. Perfumed Globes).wav
Peak level 94.8 %
Extraction speed 5.7 X
Track quality 100.0 %
Test CRC 84EDE9F0
Copy CRC 84EDE9F0
Track not present in AccurateRip database
Copy OK
Track 4
Filename D:\zzz\04 - Hemphill (III. Julius).wav
Peak level 93.7 %
Extraction speed 4.5 X
Track quality 99.8 %
Test CRC 6A869DF5
Copy CRC 6A869DF5
Track not present in AccurateRip database
Copy OK
Track 5
Filename D:\zzz\05 - Hemphill (IV. Red Blue).wav
Peak level 94.7 %
Extraction speed 6.3 X
Track quality 100.0 %
Test CRC 07D5EF40
Copy CRC 07D5EF40
Track not present in AccurateRip database
Copy OK
Track 6
Filename D:\zzz\06 - The Red Blues.wav
Peak level 98.2 %
Extraction speed 6.5 X
Track quality 99.9 %
Test CRC 99388C4D
Copy CRC 99388C4D
Track not present in AccurateRip database
Copy OK
Track 7
Filename D:\zzz\07 - I'm Me And You're Not (Ha Ha).wav
Peak level 96.7 %
Extraction speed 7.9 X
Track quality 100.0 %
Test CRC 6E3E2CD5
Copy CRC 6E3E2CD5
Track not present in AccurateRip database
Copy OK
Track 8
Filename D:\zzz\08 - Gerbils.wav
Peak level 97.9 %
Extraction speed 6.5 X
Track quality 99.9 %
Test CRC A916284A
Copy CRC A916284A
Track not present in AccurateRip database
Copy OK
Track 9
Filename D:\zzz\09 - Street Of Shoes.wav
Peak level 99.0 %
Extraction speed 7.9 X
Track quality 100.0 %
Test CRC 8CB8158C
Copy CRC 8CB8158C
Track not present in AccurateRip database
Copy OK
Track 10
Filename D:\zzz\10 - Like A Wind.wav
Peak level 94.2 %
Extraction speed 8.3 X
Track quality 100.0 %
Test CRC 2F2D6593
Copy CRC 2F2D6593
Track not present in AccurateRip database
Copy OK
Track 11
Filename D:\zzz\11 - The Train And The River.wav
Peak level 95.3 %
Extraction speed 7.9 X
Track quality 99.9 %
Test CRC 3EC99766
Copy CRC 3EC99766
Track not present in AccurateRip database
Copy OK
Track 12
Filename D:\zzz\12 - Sheer.wav
Peak level 84.7 %
Extraction speed 7.7 X
Track quality 100.0 %
Test CRC 784B17CF
Copy CRC 784B17CF
Track not present in AccurateRip database
Copy OK
Track 13
Filename D:\zzz\13 - R&B.wav
Peak level 96.4 %
Extraction speed 8.6 X
Track quality 100.0 %
Test CRC 70B14130
Copy CRC 70B14130
Track not present in AccurateRip database
Copy OK
None of the tracks are present in the AccurateRip database
No errors occurred
End of status report
==== Log checksum 9991D66648F4DB5B6A2C5C1FCC14E32C5A4D33FE5D74897853BAD912AEF6E246 ====
 
Содержание индексной карты (.CUE)
REM GENRE "Free Jazz"
REM DATE 1999
REM DISCID D00F9F0D
REM COMMENT "ExactAudioCopy v1.0b3"
PERFORMER "Jazz Composers Alliance Saxophone Quartet"
TITLE "I'm Me And You're Not (The Music Of Darrell Katz)"
FILE "01 - Belly Button Window.wav" WAVE
TRACK 01 AUDIO
TITLE "Belly Button Window"
PERFORMER "Jazz Composers Alliance Saxophone Quartet"
INDEX 01 00:00:00
FILE "02 - Hemphill (I. Texas).wav" WAVE
TRACK 02 AUDIO
TITLE "Hemphill (I. Texas)"
PERFORMER "Jazz Composers Alliance Saxophone Quartet"
INDEX 01 00:00:00
FILE "03 - Hemphill (II. Perfumed Globes).wav" WAVE
TRACK 03 AUDIO
TITLE "Hemphill (II. Perfumed Globes)"
PERFORMER "Jazz Composers Alliance Saxophone Quartet"
INDEX 01 00:00:00
FILE "04 - Hemphill (III. Julius).wav" WAVE
TRACK 04 AUDIO
TITLE "Hemphill (III. Julius)"
PERFORMER "Jazz Composers Alliance Saxophone Quartet"
INDEX 01 00:00:00
FILE "05 - Hemphill (IV. Red Blue).wav" WAVE
TRACK 05 AUDIO
TITLE "Hemphill (IV. Red Blue)"
PERFORMER "Jazz Composers Alliance Saxophone Quartet"
INDEX 01 00:00:00
FILE "06 - The Red Blues.wav" WAVE
TRACK 06 AUDIO
TITLE "The Red Blues"
PERFORMER "Jazz Composers Alliance Saxophone Quartet"
INDEX 01 00:00:00
FILE "07 - I'm Me And You're Not (Ha Ha).wav" WAVE
TRACK 07 AUDIO
TITLE "I'm Me And You're Not (Ha Ha)"
PERFORMER "Jazz Composers Alliance Saxophone Quartet"
INDEX 01 00:00:00
FILE "08 - Gerbils.wav" WAVE
TRACK 08 AUDIO
TITLE "Gerbils"
PERFORMER "Jazz Composers Alliance Saxophone Quartet"
INDEX 01 00:00:00
FILE "09 - Street Of Shoes.wav" WAVE
TRACK 09 AUDIO
TITLE "Street Of Shoes"
PERFORMER "Jazz Composers Alliance Saxophone Quartet"
INDEX 01 00:00:00
FILE "10 - Like A Wind.wav" WAVE
TRACK 10 AUDIO
TITLE "Like A Wind"
PERFORMER "Jazz Composers Alliance Saxophone Quartet"
INDEX 01 00:00:00
FILE "11 - The Train And The River.wav" WAVE
TRACK 11 AUDIO
TITLE "The Train And The River"
PERFORMER "Jazz Composers Alliance Saxophone Quartet"
INDEX 01 00:00:00
FILE "12 - Sheer.wav" WAVE
TRACK 12 AUDIO
TITLE "Sheer"
PERFORMER "Jazz Composers Alliance Saxophone Quartet"
INDEX 01 00:00:00
FILE "13 - R&B.wav" WAVE
TRACK 13 AUDIO
TITLE "R&B"
PERFORMER "Jazz Composers Alliance Saxophone Quartet"
INDEX 01 00:00:00
 
Лог проверки качества
d:\>d:\aucdtect -d/-m0 d:\zzz\*.wav
auCDtect: CD records authenticity detector, version 0.8.2
Copyright (c) 2004 Oleg Berngardt. All rights reserved.
Copyright (c) 2004 Alexander Djourik. All rights reserved.
------------------------------------------------------------
Processing file: [01. Belly Button Window.wav]
------------------------------------------------------------
This track looks like CDDA with probability 100%
------------------------------------------------------------
Processing file: [02. Hemphill (I. Texas).wav]
------------------------------------------------------------
This track looks like CDDA with probability 100%
------------------------------------------------------------
Processing file: [03. Hemphill (II. Perfumed Globes).wav]
------------------------------------------------------------
This track looks like CDDA with probability 100%
------------------------------------------------------------
Processing file: [04. Hemphill (III. Julius).wav]
------------------------------------------------------------
This track looks like CDDA with probability 100%
------------------------------------------------------------
Processing file: [05. Hemphill (IV. Red Blue).wav]
------------------------------------------------------------
This track looks like CDDA with probability 100%
------------------------------------------------------------
Processing file: [06. The Red Blues.wav]
------------------------------------------------------------
This track looks like CDDA with probability 99%
------------------------------------------------------------
Processing file: [07. I'm Me And You're Not (Ha Ha).wav]
------------------------------------------------------------
This track looks like CDDA with probability 100%
------------------------------------------------------------
Processing file: [08. Gerbils.wav]
------------------------------------------------------------
This track looks like CDDA with probability 100%
------------------------------------------------------------
Processing file: [09. Street Of Shoes.wav]
------------------------------------------------------------
This track looks like CDDA with probability 100%
------------------------------------------------------------
Processing file: [10. Like A Wind.wav]
------------------------------------------------------------
This track looks like CDDA with probability 100%
------------------------------------------------------------
Processing file: [11. The Train And The River.wav]
------------------------------------------------------------
This track looks like CDDA with probability 100%
------------------------------------------------------------
Processing file: [12. Sheer.wav]
------------------------------------------------------------
This track looks like CDDA with probability 100%
------------------------------------------------------------
Processing file: [13. R&B.wav]
------------------------------------------------------------
This track looks like CDDA with probability 100%
------------------------------------------------------------
Final Conclusion:
------------------------------------------------------------
These tracks looks like CDDA with probability 100%
Доп. информация:
 
Album Info & JazzTimes.com Review
(Jimi Hendrix) - 1
(Darrell Katz) - 2,3,4,5,6,7,8,9,10
(Jimmy Giuffre) - 11
(Phil Scarff & Darrell Katz) - 12
(Julius Hemphill) - 13
Text by Paula Tatarunis (6,7,12)
Text from 'Winesburg, Ohio' by Sherwood Anderson (10)
Produced by Darrell Katz
Recorded and mastered at PBS Studios, Westwood MA
Engineer, Peter Kontrimas, July 16 and 20, 1997
Mixed by Darrell Katz and Peter Kontrimas, with Dan Bosshardt and Phil Scarff
Photography by Christopher Navin
Liner notes by Steve Holtje
Booklet design/layout by Peggy Isaacson
This is the third album from the Boston-based Jazz Composers Alliance Saxophone Quartet, and it's an ear-burner. Jazz is all about creativity and continual evolution, and both elements are here in abundance. Without a rhythm section, the reedsmen produce a groove via well-constructed interplay and well-controlled dynamics. The music ranges from Jimi Hendrix's "Belly Button Window" to Jimmy Guiffre's "The Train and the River" and Julius Hemphill's "R&B."
Seven of the 10 tracks are originals by Darrell Katz of the Boston-based JCA and the JCA orchestra, where these saxophonists met. The one titled "Hemphill" is a four-part tribute suite written by Katz in honor of the late genius, who had appeared with the JCA orchestra. Four of the seven feature the spoken word, mainly written and performed by Katz's wife, Paula Tatarunis. The saxophonists are Dan Bosshardt on baritone, Jeff Hudgins on alto and soprano, Eric Rasmussen on alto, Phil Scarff on tenor and soprano, with Daniel Ian Smith playing tenor on one track; Angel Gittens handles vocals. An intriguing and well-executed concept.
 
Состав
Dan Bosshardt: baritone
Jeff Hudgins: alto; soprano 8,9,11
Eric Rasmussen: alto
Phil Scarff: tenor; soprano 12
Angel Gittens: vocal 1,6,10
Paula Tatarunis: recitation 7,12
Daniel Ian Smith: tenor 11
По всем вопросам пишите личное сообщение пользователю M0p94ok.
04:08
169
Нет комментариев. Ваш будет первым!