Вы используете незарегистрированную версию компонента "Вкладки"!

Поиск

(Avant-Garde Jazz, Percussion Music) [CD] Gregg Bendian & Alex Cline - Espiritu - 1998, FLAC (tracks+.cue), lossless

(Avant-Garde Jazz, Percussion Music) [CD] Gregg Bendian & Alex Cline - Espiritu - 1998, FLAC (tracks+.cue), lossless
Треклист:
Gregg Bendian & Alex Cline / Espiritu
Жанр: Avant-Garde Jazz, Percussion Music
Носитель: CD
Страна-производитель диска: US
Год издания: 1998
Издатель (лейбл): Truemedia Jazzworks
Номер по каталогу: D 98715
Страна: US
Аудиокодек: FLAC (*.flac)
Тип рипа: tracks+.cue
Битрейт аудио: lossless
Продолжительность: 73:52
Источник (релизер): свой фирменный диск
Наличие сканов в содержимом раздачи:
Треклист:
1. Breakthrough 4:56
2. Temper The Trajectory 11:26
3. Emerald Need Not Elaborate 17:14
4. Taproot 9:30
5. To The Door 20:27
6. Embers 9:39
 
Лог создания рипа
Exact Audio Copy V1.0 beta 3 from 29. August 2011
EAC extraction logfile from 29. June 2014, 15:49
Gregg Bendian & Alex Cline / Espiritu
Used drive : PIONEER DVD-RW DVR-115D Adapter: 0 ID: 0
Read mode : Secure
Utilize accurate stream : Yes
Defeat audio cache : Yes
Make use of C2 pointers : No
Read offset correction : 48
Overread into Lead-In and Lead-Out : No
Fill up missing offset samples with silence : Yes
Delete leading and trailing silent blocks : No
Null samples used in CRC calculations : Yes
Used interface : Installed external ASPI interface
Gap handling : Appended to previous track
Used output format : User Defined Encoder
Selected bitrate : 896 kBit/s
Quality : High
Add ID3 tag : No
Command line compressor : C:\Program Files\Exact Audio Copy\FLAC\FLAC.EXE
Additional command line options : -6 -V -T "ARTIST=%artist%" -T "TITLE=%title%" -T "ALBUM=%albumtitle%" -T "DATE=%year%" -T "TRACKNUMBER=%tracknr%" -T "GENRE=%genre%" -T "COMMENT=%comment%" -T "BAND=%albuminterpret%" -T "COMPOSER=%composer%" %haslyrics%--tag-from-file=LYRICS="%lyricsfile%"%haslyrics% -T "DISCNUMBER=%cdnumber%" -T "TOTALDISCS=%totalcds%" -T "TOTALTRACKS=%numtracks%" %hascover%--picture="%coverfile%"%hascover% %source% -o %dest%
TOC of the extracted CD
Track | Start | Length | Start sector | End sector
---------------------------------------------------------
1 | 0:00.00 | 4:58.00 | 0 | 22349
2 | 4:58.00 | 11:27.12 | 22350 | 73886
3 | 16:25.12 | 17:43.63 | 73887 | 153674
4 | 34:09.00 | 9:32.46 | 153675 | 196620
5 | 43:41.46 | 20:31.09 | 196621 | 288954
6 | 64:12.55 | 9:39.32 | 288955 | 332411
Track 1
Filename D:\zzz\01 - Breakthrough.wav
Pre-gap length 0:00:02.00
Peak level 100.0 %
Extraction speed 4.9 X
Track quality 100.0 %
Test CRC 14F67FA8
Copy CRC 14F67FA8
Track not present in AccurateRip database
Copy OK
Track 2
Filename D:\zzz\02 - Temper The Trajectory.wav
Pre-gap length 0:00:01.59
Peak level 100.0 %
Extraction speed 6.1 X
Track quality 100.0 %
Test CRC 646D7F92
Copy CRC 646D7F92
Track not present in AccurateRip database
Copy OK
Track 3
Filename D:\zzz\03 - Emerald Need Not Elaborate.wav
Pre-gap length 0:00:00.45
Peak level 58.1 %
Extraction speed 7.4 X
Track quality 100.0 %
Test CRC 254401D1
Copy CRC 254401D1
Track not present in AccurateRip database
Copy OK
Track 4
Filename D:\zzz\04 - Taproot.wav
Pre-gap length 0:00:02.06
Peak level 99.7 %
Extraction speed 8.2 X
Track quality 100.0 %
Test CRC 3017A441
Copy CRC 3017A441
Track not present in AccurateRip database
Copy OK
Track 5
Filename D:\zzz\05 - To The Door.wav
Pre-gap length 0:00:01.45
Peak level 99.9 %
Extraction speed 9.3 X
Track quality 100.0 %
Test CRC 021C07FB
Copy CRC 021C07FB
Track not present in AccurateRip database
Copy OK
Track 6
Filename D:\zzz\06 - Embers.wav
Pre-gap length 0:00:03.20
Peak level 20.2 %
Extraction speed 9.8 X
Track quality 100.0 %
Test CRC 0C7BAC9D
Copy CRC 0C7BAC9D
Track not present in AccurateRip database
Copy OK
None of the tracks are present in the AccurateRip database
No errors occurred
End of status report
==== Log checksum 041CB64709D921B4FA8D93FC9F16B10CB596702AB963BC09771ED95B3BCE365F ====
 
Содержание индексной карты (.CUE)
REM GENRE "Percussion Music"
REM DATE 1998
REM DISCID 46115006
REM COMMENT "ExactAudioCopy v1.0b3"
PERFORMER "Gregg Bendian & Alex Cline"
TITLE "Espiritu"
FILE "01 - Breakthrough.wav" WAVE
TRACK 01 AUDIO
TITLE "Breakthrough"
PERFORMER "Gregg Bendian & Alex Cline"
INDEX 01 00:00:00
TRACK 02 AUDIO
TITLE "Temper The Trajectory"
PERFORMER "Gregg Bendian & Alex Cline"
INDEX 00 04:56:16
FILE "02 - Temper The Trajectory.wav" WAVE
INDEX 01 00:00:00
TRACK 03 AUDIO
TITLE "Emerald Need Not Elaborate"
PERFORMER "Gregg Bendian & Alex Cline"
INDEX 00 11:26:42
FILE "03 - Emerald Need Not Elaborate.wav" WAVE
INDEX 01 00:00:00
TRACK 04 AUDIO
TITLE "Taproot"
PERFORMER "Gregg Bendian & Alex Cline"
INDEX 00 17:41:57
FILE "04 - Taproot.wav" WAVE
INDEX 01 00:00:00
TRACK 05 AUDIO
TITLE "To The Door"
PERFORMER "Gregg Bendian & Alex Cline"
INDEX 00 09:31:01
FILE "05 - To The Door.wav" WAVE
INDEX 01 00:00:00
TRACK 06 AUDIO
TITLE "Embers"
PERFORMER "Gregg Bendian & Alex Cline"
INDEX 00 20:27:64
FILE "06 - Embers.wav" WAVE
INDEX 01 00:00:00
 
Лог проверки качества
d:\>d:\aucdtect -d/-m0 d:\zzz\*.wav
auCDtect: CD records authenticity detector, version 0.8.2
Copyright (c) 2004 Oleg Berngardt. All rights reserved.
Copyright (c) 2004 Alexander Djourik. All rights reserved.
------------------------------------------------------------
Processing file: [01. Breakthrough.wav]
------------------------------------------------------------
This track looks like CDDA with probability 100%
------------------------------------------------------------
Processing file: [02. Temper The Trajectory.wav]
------------------------------------------------------------
This track looks like CDDA with probability 100%
------------------------------------------------------------
Processing file: [03. Emerald Need Not Elaborate.wav]
------------------------------------------------------------
This track looks like CDDA with probability 100%
------------------------------------------------------------
Processing file: [04. Taproot.wav]
------------------------------------------------------------
This track looks like CDDA with probability 100%
------------------------------------------------------------
Processing file: [05. To The Door.wav]
------------------------------------------------------------
This track looks like CDDA with probability 100%
------------------------------------------------------------
Processing file: [06. Embers.wav]
------------------------------------------------------------
This track looks like CDDA with probability 100%
------------------------------------------------------------
Final Conclusion:
------------------------------------------------------------
These tracks looks like CDDA with probability 100%
Доп. информация:
 
Album Info
Recorded February 20, 1997 in the Back Room, Los Angeles, CA by Wayne Peet
Post-production enhancement: Jeff Gauthier, Studio Goat
Mastering: The Virtual Dynamics Group
Door: Silvia Acosta
Cover art: Karou "Untitled #91"
Photographs: Peter Gravina (Gregg), Karen Cline (Alex)
Produced by Gregg Bendian and Alex Cline
Executive producer: Robert Hill
Thanks to Jeff, Wayne, Kaoru and Mr. Hill.
Special thanks to Thelma Cline, Silvia Acosta & Karen Cline
Alex Cline uses Paiste cymbals and gongs; Vic Firth drumsticks, mallets and other striking implements; Attack drumheads; and Montineri custom snare drums.
Gregg Bendian uses Musser vibraphone, glockenspiel and mallets; Paiste cymbals; Attack drumheads and (normally) Drum Workshop drums.
Liner notes: Alex Cline, Gregg Bendian
 
Состав
Gregg Bendian & Alex Cline: drums & percussion
По всем вопросам пишите личное сообщение пользователю M0p94ok.
04:08
169
Нет комментариев. Ваш будет первым!