Поиск

(Avant-Garde, Jewish) [CD] Anthony Coleman (w. Guy Klucevsek, Doug Wieselman, Roy Nathanson etc) - Disco by Night {Avant / Disk Union AVAN 011, Japan} - 1992, FLAC (tracks+.cue), lossless

(Avant-Garde, Jewish) [CD] Anthony Coleman (w. Guy Klucevsek, Doug Wieselman, Roy Nathanson etc) - Disco by Night {Avant / Disk Union AVAN 011, Japan} - 1992, FLAC (tracks+.cue), lossless
Anthony Coleman / Disco by Night
Жанр: Avant-Garde, Jewish
Носитель: CD
Страна-производитель диска: Japan
Год издания: 1992
Издатель (лейбл): Avant / Disk Union
Номер по каталогу: AVAN 011
Аудиокодек: FLAC (*.flac)
Тип рипа: tracks+.cue
Битрейт аудио: lossless
Продолжительность: 00:31:24
Источник (релизер): padre_atos
Наличие сканов в содержимом раздачи: да (by Lucky)
Треклист:
1. By Night (1987-88) 13'41
2. Jevrejski By Night (1990-92) 4'34
3. Trend Man (1992) 4'55
4. A Hurtful Angle (1992) 3'36
5. Disco By Night (1989-90) 4'35
Anthony Coleman - piano (1,2,5), keyboard sampler (3,5)
Guy Klucevsek - accordion (all)
Doug Wieselman - clarinet (exc. 2)
Roy Nathanson - soprano saxophone (2)
James Pugliese - drums (exc. 4)
Gisburg Smialek - voice (3)
All compositions by Anthony Coleman
1 was recorded on June 15, 1988 at Baby Monster Studio (downtown)
2-5 were recorded on January 28, 1992 at Baby Monster Studio (uptown)
2: Jevrejski means "Jewish" in Serbo-Croatian. This piece takes Eastern European Klezmer music as its basis
3: An Eastern EuroDisco piece with a text from an Austrian advertising supplement comparing the changes in suit fashions to the opening up of Eastern Europe
Produced by Anthony Coleman
Executive prod.: John Zorn / Disk Union
Ass. prod.: Kazunori Sugiyama
CD premastering/Sound Tools at Studio zOaR by Elliot Sharp
 
Лог создания рипа (EAC Log)
Exact Audio Copy V0.99 prebeta 4 from 23. January 2008
EAC extraction logfile from 6. August 2008, 22:29
Anthony Coleman / Disco by Night
Used drive : HL-DT-STDVD-RAM GH22NP20 Adapter: 0 ID: 0
Read mode : Secure
Utilize accurate stream : Yes
Defeat audio cache : No
Make use of C2 pointers : No
Read offset correction : 102
Overread into Lead-In and Lead-Out : No
Fill up missing offset samples with silence : Yes
Delete leading and trailing silent blocks : No
Null samples used in CRC calculations : Yes
Used interface : Installed external ASPI interface
Gap handling : Appended to previous track
Used output format : Internal WAV Routines
Sample format : 44.100 Hz; 16 Bit; Stereo
TOC of the extracted CD
Track | Start | Length | Start sector | End sector
---------------------------------------------------------
1 | 0:00.00 | 13:41.55 | 0 | 61629
2 | 13:41.55 | 4:35.37 | 61630 | 82291
3 | 18:17.17 | 4:55.20 | 82292 | 104436
4 | 23:12.37 | 3:36.70 | 104437 | 120706
5 | 26:49.32 | 4:35.23 | 120707 | 141354
Track 1
Filename D:\BitTorrent\Anthony Coleman - Disco by Night\01 - By Night.wav
Pre-gap length 0:00:02.00
Peak level 98.4 %
Track quality 100.0 %
Test CRC DA16D91B
Copy CRC DA16D91B
Track not present in AccurateRip database
Copy OK
Track 2
Filename D:\BitTorrent\Anthony Coleman - Disco by Night\02 - Jevrejski by Night.wav
Pre-gap length 0:00:00.02
Peak level 97.2 %
Track quality 100.0 %
Test CRC 0AE7B76E
Copy CRC 0AE7B76E
Track not present in AccurateRip database
Copy OK
Track 3
Filename D:\BitTorrent\Anthony Coleman - Disco by Night\03 - Trend Man.wav
Pre-gap length 0:00:00.71
Peak level 97.2 %
Track quality 100.0 %
Test CRC 89F77A75
Copy CRC 89F77A75
Track not present in AccurateRip database
Copy OK
Track 4
Filename D:\BitTorrent\Anthony Coleman - Disco by Night\04 - A Hurtful Angle.wav
Pre-gap length 0:00:03.34
Peak level 44.8 %
Track quality 100.0 %
Test CRC 81331417
Copy CRC 81331417
Track not present in AccurateRip database
Copy OK
Track 5
Filename D:\BitTorrent\Anthony Coleman - Disco by Night\05 - Disco by Night.wav
Pre-gap length 0:00:00.69
Peak level 97.2 %
Track quality 99.9 %
Test CRC D24CA56F
Copy CRC D24CA56F
Track not present in AccurateRip database
Copy OK
None of the tracks are present in the AccurateRip database
No errors occurred
End of status report
flac -V -8 -P 131072 --delete-input-file *.wav
flac 1.2.1, Copyright (C) 2000,2001,2002,2003,2004,2005,2006,2007 Josh Coalson
flac comes with ABSOLUTELY NO WARRANTY. This is free software, and you are
welcome to redistribute it under certain conditions. Type `flac' for details.
01 - By Night.wav: Verify OK, wrote 66938048 bytes, ratio=0.462
02 - Jevrejski by Night.wav: Verify OK, wrote 23350847 bytes, ratio=0.480
03 - Trend Man.wav: Verify OK, wrote 25601487 bytes, ratio=0.492
04 - A Hurtful Angle.wav: Verify OK, wrote 14525200 bytes, ratio=0.380
05 - Disco by Night.wav: Verify OK, wrote 26190597 bytes, ratio=0.539
 
Содержание индексной карты (.CUE)
REM GENRE "Avant-Garde, Jewish, National Folk"
REM DATE 1992
REM DISCID 3C075C05
REM COMMENT "ExactAudioCopy v0.99pb4"
PERFORMER "Anthony Coleman"
TITLE "Disco by Night"
FILE "01 - By Night.wav" WAVE
TRACK 01 AUDIO
TITLE "By Night"
PERFORMER "Anthony Coleman"
INDEX 01 00:00:00
TRACK 02 AUDIO
TITLE "Jevrejski by Night"
PERFORMER "Anthony Coleman"
INDEX 00 13:41:53
FILE "02 - Jevrejski by Night.wav" WAVE
INDEX 01 00:00:00
TRACK 03 AUDIO
TITLE "Trend Man"
PERFORMER "Anthony Coleman"
INDEX 00 04:34:41
FILE "03 - Trend Man.wav" WAVE
INDEX 01 00:00:00
TRACK 04 AUDIO
TITLE "A Hurtful Angle"
PERFORMER "Anthony Coleman"
INDEX 00 04:51:61
FILE "04 - A Hurtful Angle.wav" WAVE
INDEX 01 00:00:00
TRACK 05 AUDIO
TITLE "Disco by Night"
PERFORMER "Anthony Coleman"
INDEX 00 03:36:01
FILE "05 - Disco by Night.wav" WAVE
INDEX 01 00:00:00
 
Anthony Coleman about Klezmer @ NewMusicBox

Anthony Coleman
Photo by Sara Valenzuela
Anthony Coleman about Klezmer @ NewMusicBox
04:09
745
Нет комментариев. Ваш будет первым!