Вы используете незарегистрированную версию компонента "Вкладки"!

Поиск

(Avant-Garde Jazz, Free Jazz) [CD] Air - 80° Below '82 (1982) - 1987, FLAC (tracks+.cue), lossless

(Avant-Garde Jazz, Free Jazz) [CD] Air - 80° Below '82 (1982) - 1987, FLAC (tracks+.cue), lossless
Треклист:
Air / 80° Below '82
Жанр: Avant-Garde Jazz, Free Jazz
Страна: US
Носитель: CD
Страна-производитель диска: Japan
Год издания: 1987
Издатель (лейбл): Antilles/Island Records
Номер по каталогу: J33D-20008
Аудиокодек: FLAC (*.flac)
Тип рипа: tracks+.cue
Битрейт аудио: lossless
Продолжительность: 00:35:30
Источник (релизер): what.cd (MrHudson)
Наличие сканов в содержимом раздачи: нет
________3________80° Below '82________1________Chicago BreakdownThe Traveller________2____________4____Do Tell
 
Состав
Fred Hopkins – bass
Steve McCall – trap drums
Henry Threadgill – alto saxophone

 
XLD log
X Lossless Decoder version 20130720 (144.0)
XLD extraction logfile from 2013-07-27 21:58:42 +0200
Air / 80° Below '82
Used drive : MATSHITA DVD-R UJ-898 (revision HC10)
Media type : Pressed CD
Ripper mode : XLD Secure Ripper
Disable audio cache : OK for the drive with a cache less than 1375KiB
Make use of C2 pointers : NO
Read offset correction : 102
Max retry count : 100
Gap status : Analyzed, Appended (except HTOA)
TOC of the extracted CD
Track | Start | Length | Start sector | End sector
---------------------------------------------------------
1 | 00:00:37 | 08:04:53 | 37 | 36389
2 | 08:05:15 | 09:35:17 | 36390 | 79531
3 | 17:40:32 | 08:07:58 | 79532 | 116114
4 | 25:48:15 | 09:44:55 | 116115 | 159969
AccurateRip Summary (DiscID: 0005fb6c-00180b2b-29085404)
Track 01 : OK (v1, confidence 2/2)
Track 02 : OK (v1, confidence 2/2)
Track 03 : OK (v1, confidence 2/2)
Track 04 : OK (v1, confidence 2/2)
->All tracks accurately ripped.
All Tracks
Album gain : 1.26 dB
Peak : 0.885773
Statistics
Read error : 0
Jitter error (maybe fixed) : 0
Retry sector count : 0
Damaged sector count : 0
Track 01
Filename : /Users/Home/XLD/Air - 80° Below '82 (1982) [FLAC]/01 Chicago Breakdown.flac
Pre-gap length : 00:02:37
Track gain : 0.99 dB
Peak : 0.879822
CRC32 hash (test run) : E811DDDA
CRC32 hash : E811DDDA
CRC32 hash (skip zero) : 14BF3ABC
AccurateRip v1 signature : 8F615018
AccurateRip v2 signature : F5073803
->Accurately ripped (v1, confidence 2/2)
Statistics
Read error : 0
Jitter error (maybe fixed) : 0
Retry sector count : 0
Damaged sector count : 0
Track 02
Filename : /Users/Home/XLD/Air - 80° Below '82 (1982) [FLAC]/02 The Traveller.flac
Pre-gap length : 00:05:20
Track gain : 1.69 dB
Peak : 0.885773
CRC32 hash (test run) : 9A13F755
CRC32 hash : 9A13F755
CRC32 hash (skip zero) : 4F91A024
AccurateRip v1 signature : B5A482A2
AccurateRip v2 signature : 9167B713
->Accurately ripped (v1, confidence 2/2)
Statistics
Read error : 0
Jitter error (maybe fixed) : 0
Retry sector count : 0
Damaged sector count : 0
Track 03
Filename : /Users/Home/XLD/Air - 80° Below '82 (1982) [FLAC]/03 80° Below '82.flac
Pre-gap length : 00:04:37
Track gain : 2.55 dB
Peak : 0.754303
CRC32 hash (test run) : 097E48EE
CRC32 hash : 097E48EE
CRC32 hash (skip zero) : 4B2EC21E
AccurateRip v1 signature : 965236D4
AccurateRip v2 signature : 3441155A
->Accurately ripped (v1, confidence 2/2)
Statistics
Read error : 0
Jitter error (maybe fixed) : 0
Retry sector count : 0
Damaged sector count : 0
Track 04
Filename : /Users/Home/XLD/Air - 80° Below '82 (1982) [FLAC]/04 Do Tell.flac
Pre-gap length : 00:03:72
Track gain : 0.50 dB
Peak : 0.804138
CRC32 hash (test run) : 9C19121A
CRC32 hash : 9C19121A
CRC32 hash (skip zero) : DBD02519
AccurateRip v1 signature : 3155C2C8
AccurateRip v2 signature : 1FFA5B86
->Accurately ripped (v1, confidence 2/2)
Statistics
Read error : 0
Jitter error (maybe fixed) : 0
Retry sector count : 0
Damaged sector count : 0
No errors occurred
End of status report
 
.cue
TITLE "80В° Below '82"
PERFORMER "Air"
REM GENRE "Jazz"
REM DATE "1982"
REM DISCNUMBER 1
REM TOTALDISCS 1
REM DISCID 29085404
REM REPLAYGAIN_ALBUM_GAIN 1.26 dB
REM REPLAYGAIN_ALBUM_PEAK 0.885773
FILE "01 Chicago Breakdown.flac" WAVE
TRACK 01 AUDIO
TITLE "Chicago Breakdown"
PERFORMER "Air"
REM REPLAYGAIN_TRACK_GAIN 0.99 dB
REM REPLAYGAIN_TRACK_PEAK 0.879822
PREGAP 00:00:37
INDEX 01 00:00:00
TRACK 02 AUDIO
TITLE "The Traveller"
PERFORMER "Air"
REM REPLAYGAIN_TRACK_GAIN 1.69 dB
REM REPLAYGAIN_TRACK_PEAK 0.885773
INDEX 00 07:59:33
FILE "02 The Traveller.flac" WAVE
INDEX 01 00:00:00
TRACK 03 AUDIO
TITLE "80В° Below '82"
PERFORMER "Air"
REM REPLAYGAIN_TRACK_GAIN 2.55 dB
REM REPLAYGAIN_TRACK_PEAK 0.754303
INDEX 00 09:30:55
FILE "03 80В° Below '82.flac" WAVE
INDEX 01 00:00:00
TRACK 04 AUDIO
TITLE "Do Tell"
PERFORMER "Air"
REM REPLAYGAIN_TRACK_GAIN 0.50 dB
REM REPLAYGAIN_TRACK_PEAK 0.804138
INDEX 00 08:03:61
FILE "04 Do Tell.flac" WAVE
INDEX 01 00:00:00
 
auCDtect
-----------------------
DON'T MODIFY THIS FILE
-----------------------
PERFORMER: auCDtect Task Manager, ver. 1.6.0 RC1 build 1.6.0.1
Copyright (c) 2008-2010 y-soft. All rights reserved
http://y-soft.org
ANALYZER: auCDtect: CD records authenticity detector, version 0.8.2
Copyright (c) 2004 Oleg Berngardt. All rights reserved.
Copyright (c) 2004 Alexander Djourik. All rights reserved.
FILE: 04 Do Tell.flac
Size: 50731806 Hash: E979F8B3BD26646F72CEC15CDF064102 Accuracy: -m0
Conclusion: CDDA 100%
Signature: AAF324C226878542D96445995C5F0FC3B8985C2E
FILE: 03 80° Below '82.flac
Size: 38872667 Hash: 76B8C0BD5F9FAC30A97B63A54D4F62D9 Accuracy: -m0
Conclusion: CDDA 99%
Signature: 74EF6C63E937C111B6D9C473270FC08968C25CAB
FILE: 02 The Traveller.flac
Size: 54278381 Hash: 513B0E0892172B2F7D7DE211C7A9471D Accuracy: -m0
Conclusion: CDDA 100%
Signature: FF4179EB50AA5D825E51DA4E02C0C837E6F66204
FILE: 01 Chicago Breakdown.flac
Size: 37877535 Hash: 5E025F2EFDC61EB5934574DEF2CC8B18 Accuracy: -m0
Conclusion: CDDA 100%
Signature: C7E2DEE9A3008C9759FDFC50496979A39C8DD6F4
 
*
дискогз
винил
_
сделал пана!!!))))))))
По всем вопросам пишите личное сообщение пользователю M0p94ok.
04:10
162
Нет комментариев. Ваш будет первым!