Поиск

(free-jazz meditations) Otomo Yoshihide's New Jazz Quintet - Live (DIW Records) - 2002, FLAC (image + .cue), lossless

(free-jazz meditations) Otomo Yoshihide's New Jazz Quintet - Live (DIW Records) - 2002, FLAC (image + .cue), lossless
Треклист:
Otomo Yoshihide's New Jazz Quintet - Live (DIW Records)
Страна: Japan
Жанр: free-jazz meditations
Год выпуска: 2002
Формат: FLAC (image + .cue)
Битрейт аудио: lossless
Продолжительность: 72:13
Трэклист:
1. Swee-Pea (Shorter) / There (Otomo) 14:38
2. Flutter (Otomo) 20:23
3. Hat & Beard (Dolphy) 18:29
4. Eureka (O'Rourke) 18:37
all tracks recorded live at Shinjuku Pit Inn, Tokyo, March 17, 2002
No overdubs, no edit
Доп. информация: ONJQ:
Otomo Yoshihide - guitar
Kikuchi Naruyoshi - tenor sax
Tsugami Kenta - soprano sax, alto sax
Muzitani Hiroaki - bass
Yoshigaki Yasuhiro - drums
Пожалуй, этот диск - наиболее доброжелательно настроенный по отношению к сознанию и ушам слушателя из всего разнообразия дискографии Отомо. Относительно спокойные (ну насколько вообще может быть спокойна музыкальная мысль этого человека) фри-джазовые медитации в лучших традициях невероятно им почитаемого Эрика Дольфи. Длинные, по японски-изящно-каллиграфичные саксофонные соло, чуткая, осторожная, но одновременно с этим не лишенная дерзости гитара, тонкие паттерны ритм секции. Волшебная пластинка. Мои самые искренние рекомендации.
 
Отчёт EAC
Exact Audio Copy V0.99 prebeta 4 from 23. January 2008
Отчёт EAC об извлечении, выполненном 2. мая 2008, 19:18
Otomo Yoshihide's New Jazz Quintet / Live
Дисковод: Optiarc DVD RW AD-7170A Adapter: 0 ID: 1
Режим чтения : Достоверность
Использование точного потока : Да
Отключение кэша аудио : Да
Использование указателей C2 : Нет
Комбинированное смещение чтения/записи : 0
Способность читать области Lead-in и Lead-out : Нет
Заполнение пропущенных сэмплов тишиной : Да
Удаление блоков с тишиной в начале и конце : Нет
При вычислениях CRC использовались нулевые сэмплы : Нет
Интерфейс : Встроенный Win32-интерфейс для Win NT/2000
Выходной формат : Пользовательский кодировщик
Выбранный битрейт : 768 kBit/s
Качество : Высокий
Добавление ID3-тэга : Нет
Утилита сжатия : C:\Program Files\Exact Audio Copy\FLAC\FLAC.EXE
Дополнительные параметры : -6 -V -T "ARTIST=%a" -T "TITLE=%t" -T "ALBUM=%g" -T "DATE=%y" -T "TRACKNUMBER=%n" -T "GENRE=%m" -T "COMMENT=%e" %s -o %d
TOC извлечённого CD
Трек | Старт | Длительность | Начальный сектор | Конечный сектор
---------------------------------------------------------------------
1 | 0:00.00 | 14:38.49 | 0 | 65898
2 | 14:38.49 | 20:23.11 | 65899 | 157634
3 | 35:01.60 | 18:34.08 | 157635 | 241192
4 | 53:35.68 | 18:37.43 | 241193 | 325010
Характеристики диапазона извлечения и сообщения об ошибках
Выбранный диапазон
Имя файла C:\Music\Otomo Yoshihide's New Jazz Quintet - Live.wav
Пиковый уровень 99.0 %
Качество диапазона 100.0 %
CRC копии 48A970D5
Копирование... OK
Ошибок не произошло
Конец отчёта
Приватный:
Нет (DHT включён)
Размер:
443.80 Мб (465,355,362 байт) » файлов: 3
Участники:
0 раздают, 0 качают (0 участников всего)
Внешние участники:
1 раздают, 0 качают (1 участников всего) [ Обновить ]
Есть вопросы - пишите личное сообщение пользователю M0p94ok.
00:50
44
Нет комментариев. Ваш будет первым!