Поиск

(Avant-Garde / Free Jazz) Yosuke Yamashita — Frozen Days — 1974/95, FLAC (tracks)

Треклист:
Frozen Days
Yosuke Yamashita Trio
Страна: Japan
Жанр: Avant-Garde / Free Jazz
Год выпуска: 1974 / 1995
Формат: FLAC (tracks)
Продолжительность: 37:09
Трэклист:
01. Prophase 3:30
02. Double Helix 4:45
03. Chiasma 9:45
04. Interphase 9:16
05. Mitocohondria 9:48
Доп. информация:
Personnel:
Yosuke Yamashita : piano
Akira Sakata : alto saxophone
Takeo Moriyama : drums
Recorded September 25, 27, 28, 1974 at Crown Record #1 Studio
 
EAC extraction logfile
EAC extraction logfile from 26. April 2008, 15:30 for CD
Yosuke Yamashita / Frozen Days
Used drive : TEAC DV-W28EA Adapter: 1 ID: 0
Read mode : Secure with NO C2, accurate stream, disable cache
Read offset correction : 72
Overread into Lead-In and Lead-Out : No
Used output format : C:\Program Files\FLAC\flac.exe (User Defined Encoder)
320 kBit/s
Additional command line options : -8 -V -T "ARTIST=%a" -T "TITLE=%t" -T "ALBUM=%g" -T "DATE=%y" -T "TRACKNUMBER=%n" -T "GENRE=%m" -T "COMMENT=EAC 0.95 beta 4, FLAC -8" %s
Other options :
Fill up missing offset samples with silence : Yes
Delete leading and trailing silent blocks : No
Installed external ASPI interface
Track 1
Filename C:\xxxxxxx\Yosuke Yamashita (1974) Frozen Days\01. Prophase.wav
Pre-gap length 0:00:02.00
Peak level 97.8 %
Track quality 100.0 %
Test CRC 6AA2CDDA
Copy CRC 6AA2CDDA
Copy OK
Track 2
Filename C:\xxxxxxx\Yosuke Yamashita (1974) Frozen Days\02. Double Helix.wav
Peak level 68.7 %
Track quality 100.0 %
Test CRC 1D150688
Copy CRC 1D150688
Copy OK
Track 3
Filename C:\xxxxxxx\Yosuke Yamashita (1974) Frozen Days\03. Chiasma.wav
Peak level 100.0 %
Track quality 100.0 %
Test CRC 93231393
Copy CRC 93231393
Copy OK
Track 4
Filename C:\xxxxxxx\Yosuke Yamashita (1974) Frozen Days\04. Interphase.wav
Pre-gap length 0:00:01.00
Peak level 100.0 %
Track quality 100.0 %
Test CRC 5EC83456
Copy CRC 5EC83456
Copy OK
Track 5
Filename C:\xxxxxxx\Yosuke Yamashita (1974) Frozen Days\05. Mitocohondria.wav
Peak level 100.0 %
Track quality 100.0 %
Test CRC 4FFAF5F2
Copy CRC 4FFAF5F2
Copy OK
No errors occured
End of status report
 
Biography
Yamashita studied piano as a child and has played professionally since the age of 17. He attended Kunitachi College of Music in Tokyo from 1962-1967 and played for a time with saxophonist Sadao Watanabe. Yamashita formed a bassless trio in 1969; his Bill Evans-influenced style expanded to include free jazz, a rather radical step given the conservatism of the Japanese jazz scene at the time. Beginning in the '70s, his trio toured widely and played many major European events, including the Berlin and Montreux jazz festivals. Yamashita's U.S. debut was at the 1979 Newport Jazz Festival; he also recorded with members of the Art Ensemble of Chicago around that time. In the '80s, Yamashita began playing frequent solo concerts. He also branched out stylistically, playing with Japanese and Korean percussionists and incorporating adaptations of classical works into his repertoire. Yamashita has worked with many internationally famous artists, including Max Roach, Elvin Jones, Bill Laswell, Mal Waldron, and Lester Bowie. In 1985, he made the first of what would come to be annual appearances at Sweet Basil night club in New York. He formed an "American" trio with bassist Cecil McBee and drummer Pheeroan akLaff; the group became his primary performing unit when in the States. In the '90s, Yamashita recorded several albums for Verve; in 1994, he played solo at the label's 50th anniversary concert at Carnegie Hall. Yamashita has recorded more than 40 albums. He's also an accomplished essayist, having written several books.
(www.allmusic.com/cg/amg.dll?p=amg&sql=11:difyxqy5ldfe~T1)
This album is the first studio recording album of the 2nd formation of Yosuke Yamashita Trio. Thanks to newly joined Akira Sakata, trio got more destructibility, aggressiveness and complexity in their play.
Akira Sakata (born February 21, 1945) is a leading figure in Japanese culture scene. And with his comedian like character, he often appears on Japanese TV program. After he dropped out from Yamashita's trio, he launched many experimental music projects include comedy mix experimental music and theater of the absurd alike music which are widely available in Japanese market.
Приватный:
Нет (DHT включён)
Размер:
223.35 Мб (234,201,336 байт) » файлов: 14
Участники:
0 раздают, 0 качают (0 участников всего)
Внешние участники:
3 раздают, 1 качают (4 участников всего) [ Обновить ]
Есть вопросы - пишите личное сообщение пользователю M0p94ok.
00:51
50
Нет комментариев. Ваш будет первым!