Поиск

(Jazz, Avant-Garde) Ralph Simon - As - 1994, FLAC (tracks+.cue), lossless

(Jazz, Avant-Garde) Ralph Simon - As - 1994, FLAC (tracks+.cue), lossless
Треклист:
Ralph Simon - As (1994) [FLAC] {Postcards}
Жанр: Jazz, Avant-Garde
Записано: May 1981 at Skyline Studio, New York City
выпущено: 1994
Формат: FLAC (tracks+.cue)
Битрейт аудио: lossless
Продолжительность: 48:05
Фирма: Postcards
Источник: коллекция Л.Рендера
Включает: FLACS, LOG, CUE, TAU, Info - 354 mb
Сканы: Все страницы, вкладыши и диск. 300dpi, png.
Рип: Musicgate (Dyani)
Трэклист:
1 Kalimba - 8:24
2 Promise - 10:36
3 Gepetto - 5:47
4 Julie and Julius - 3:39
5 Skin on Skin - 19:39
Доп. информация:
Состав:
Ralph Simon - Tenor, soprano & alto saxophone
Gene Adler - Piano and kalimba on Kalimba
Piano on Skin on Skin
[on all songs except Julie and Julius]
Jeff Berman - Vibes
Tom Beyer - Percussion
David Dunaway - Bass
Chip White - Drums
[on Julie and Julius]
Billy Hart - Drums
Marc Johnson - Bass
Dan Rose - Guitar
Об альбоме:
Allmusic.com
Цитата:
Этот расслабляющий диск (записан в 1981, но впервые выпущен в 1994) звучит немного как Pharoah Sanders (в одном из его мирных настроений), встретившийся с ритм секцией Майлса Дэвиса периода Bitches Brew. Использование калимбы (Gene Adler) добавляеn своеобразную атмосферу одноименному номеру, и его же рояль - главный инструцмент в длинном "Skin on Skin." Сопрано Ральфа Саймона напоминает местами Вэйни Шортера, его тенор лидирует в "Gepetto" и все его соло - вдумчивые и полные осмысленности. С деликатной поддержкой двух разных ритм секций, Саймон создает интересный, пропитанный задумчивостью альбом
 
Folder content
01 - Kalimba.flac
02 - Promise.flac
03 - Gepetto.flac
04 - Julie and Julius.flac
05 - Skin On Skin.flac
Artwork
As.log
As_Noncompliant.CUE
As_Single Wav.CUE
front.jpg
info_eng.txt
info_rus.txt
Ralph Simon - As.m3u
Share!.txt
tau.txt
thumb.jpg
Artwork\Back.png
Artwork\Booklet 1.png
Artwork\Booklet 2.png
Artwork\Booklet 3.png
Artwork\Booklet 4.png
Artwork\Disc.png
 
EAC log
EAC extraction logfile from 2. May 2008, 13:19 for CD
Ralph Simon / As
Used drive : PIONEER DVD-RW DVR-112D Adapter: 0 ID: 0
Read mode : Secure with NO C2, accurate stream, disable cache
Read offset correction : 48
Overread into Lead-In and Lead-Out : No
Used output format : C:\Program Files\FLAC\flac.exe (User Defined Encoder)
320 kBit/s
Additional command line options : -8 -V -T "ARTIST=%a" -T "TITLE=%t" -T "ALBUM=%g" -T "DATE=%y" -T "TRACKNUMBER=%n" -T "GENRE=%m" -T "COMMENT=EAC FLAC -8" %s
Other options :
Fill up missing offset samples with silence : Yes
Delete leading and trailing silent blocks : No
Installed external ASPI interface
Track 1
Filename D:\music\rip\Ralph Simon - As (1994) [FLAC] {Postcards}\01 - Kalimba.wav
Pre-gap length 0:00:02.00
Peak level 94.4 %
Track quality 100.0 %
Test CRC 3AEB0971
Copy CRC 3AEB0971
Copy OK
Track 2
Filename D:\music\rip\Ralph Simon - As (1994) [FLAC] {Postcards}\02 - Promise.wav
Pre-gap length 0:00:03.24
Peak level 94.4 %
Track quality 100.0 %
Test CRC FB6F05B2
Copy CRC FB6F05B2
Copy OK
Track 3
Filename D:\music\rip\Ralph Simon - As (1994) [FLAC] {Postcards}\03 - Gepetto.wav
Pre-gap length 0:00:00.66
Peak level 93.0 %
Track quality 100.0 %
Test CRC 440FFBD1
Copy CRC 440FFBD1
Copy OK
Track 4
Filename D:\music\rip\Ralph Simon - As (1994) [FLAC] {Postcards}\04 - Julie and Julius.wav
Pre-gap length 0:00:01.80
Peak level 94.4 %
Track quality 100.0 %
Test CRC 5F346903
Copy CRC 5F346903
Copy OK
Track 5
Filename D:\music\rip\Ralph Simon - As (1994) [FLAC] {Postcards}\05 - Skin On Skin.wav
Pre-gap length 0:00:02.20
Peak level 94.4 %
Track quality 99.9 %
Test CRC 711298E3
Copy CRC 711298E3
Copy OK
No errors occured
End of status report
 
TAU log
50338907 89493644 01 - Kalimba.wav
3044326200 112218668 02 - Promise.wav
1317011965 61516604 03 - Gepetto.wav
1426691726 39120860 04 - Julie and Julius.wav
2100356763 207827468 05 - Skin On Skin.wav
auCDtect: CD records authenticity detector, version 0.8.2
Copyright (c) 2004 Oleg Berngardt. All rights reserved.
Copyright (c) 2004 Alexander Djourik. All rights reserved.
------------------------------------------------------------
Processing file: [01 - Kalimba.wav]
------------------------------------------------------------
This track looks like CDDA with probability 100%
------------------------------------------------------------
Processing file: [02 - Promise.wav]
------------------------------------------------------------
This track looks like CDDA with probability 100%
------------------------------------------------------------
Processing file: [03 - Gepetto.wav]
------------------------------------------------------------
This track looks like CDDA with probability 100%
------------------------------------------------------------
Processing file: [04 - Julie and Julius.wav]
------------------------------------------------------------
This track looks like CDDA with probability 100%
------------------------------------------------------------
Processing file: [05 - Skin On Skin.wav]
------------------------------------------------------------
This track looks like CDDA with probability 99%
------------------------------------------------------------
Final Conclusion:
------------------------------------------------------------
These tracks looks like CDDA with probability 100%
Приватный:
Нет (DHT включён)
Размер:
338.48 Мб (354,921,377 байт) » файлов: 21
Участники:
0 раздают, 0 качают (0 участников всего)
Внешние участники:
1 раздают, 0 качают (1 участников всего) [ Обновить ]
Есть вопросы - пишите личное сообщение пользователю M0p94ok.
00:51
63
Нет комментариев. Ваш будет первым!