Поиск

(modern free-jazz) The Thing with Ken Vandermark - Immediate Sound - 2007, FLAC (image + .cue), lossless

(modern free-jazz) The Thing with Ken Vandermark - Immediate Sound - 2007, FLAC (image + .cue), lossless
Треклист:
The Thing with Ken Vandermark - Immediate Sound
Страна: Sweden, Norway, USA
Жанр: modern free-jazz
Год выпуска: 2007
Формат: FLAC (image + .cue)
Битрейт аудио: lossless
Продолжительность: 38:05
Трэклист:
1. Hide Out part 1
2. Hide Out part 2
3. Hide Out part 3
4. Hide Out part 4
Доп. информация: MATS GUSTAFSSON - alto and baritone saxophones
PAAL NILSSEN-LOVE - drums
INGEBRIGT HAKER FLATEN - double-bass
KEN VANDERMARK - tenor saxophone
великолепная, душераздирающая, восхитительная пластинка с максимумом экспрессии, невероятной техникой игры и крайне бурной эмоциональной окраской. в некоторых местах композиции с удовольствием угадываются цитаты из классических стандартов типа Love Supreme, Mystery Song и пр. Для меня - главный фри-джазовый релиз прошлого года. (вышел, естественно, на Smalltown superjazzz)
 
Отчёт EAC
Exact Audio Copy V0.99 prebeta 4 from 23. January 2008
Отчёт EAC об извлечении, выполненном 2. мая 2008, 6:43
The Thing with Ken Vandermark / Immediate Sound
Дисковод: Optiarc DVD RW AD-7170A Adapter: 0 ID: 1
Режим чтения : Достоверность
Использование точного потока : Да
Отключение кэша аудио : Да
Использование указателей C2 : Нет
Комбинированное смещение чтения/записи : 0
Способность читать области Lead-in и Lead-out : Нет
Заполнение пропущенных сэмплов тишиной : Да
Удаление блоков с тишиной в начале и конце : Нет
При вычислениях CRC использовались нулевые сэмплы : Нет
Интерфейс : Встроенный Win32-интерфейс для Win NT/2000
Выходной формат : Пользовательский кодировщик
Выбранный битрейт : 768 kBit/s
Качество : Высокий
Добавление ID3-тэга : Нет
Утилита сжатия : C:\Program Files\Exact Audio Copy\FLAC\FLAC.EXE
Дополнительные параметры : -6 -V -T "ARTIST=%a" -T "TITLE=%t" -T "ALBUM=%g" -T "DATE=%y" -T "TRACKNUMBER=%n" -T "GENRE=%m" -T "COMMENT=%e" %s -o %d
TOC извлечённого CD
Трек | Старт | Длительность | Начальный сектор | Конечный сектор
---------------------------------------------------------------------
1 | 0:00.00 | 11:35.31 | 0 | 52155
2 | 11:35.31 | 2:22.04 | 52156 | 62809
3 | 13:57.35 | 9:42.41 | 62810 | 106500
4 | 23:40.01 | 14:25.14 | 106501 | 171389
Характеристики диапазона извлечения и сообщения об ошибках
Выбранный диапазон
Имя файла C:\Music\The Thing with Ken Vandermark - Immediate Sound.wav
Пиковый уровень 93.7 %
Качество диапазона 99.9 %
CRC копии C0677C53
Копирование... OK
Ошибок не произошло
Конец отчёта
Приватный:
Нет (DHT включён)
Размер:
244.45 Мб (256,320,187 байт) » файлов: 3
Участники:
0 раздают, 0 качают (0 участников всего)
Внешние участники:
5 раздают, 2 качают (7 участников всего) [ Обновить ]
No seeders - write a personal message to user M0p94ok. Нет сидеров - пишите личное сообщение пользователю M0p94ok.
00:49
51
Нет комментариев. Ваш будет первым!