Вы используете незарегистрированную версию компонента "Вкладки"!

Поиск

(Free Jazz) Marion Brown Quartet - Marion Brown Quartet - 2002, FLAC (tracks+.cue) lossless

Треклист:
Marion Brown Quartet - Marion Brown Quartet
Жанр: Free Jazz
Страна-производитель диска: Germany
Год издания диска: 2002
Издатель (лейбл): ESP Disk (ZYX CD)
Номер по каталогу: ESP 1022-2
Аудио кодек: FLAC (*.flac)
Тип рипа: tracks+.cue
Битрейт аудио: lossless
Продолжительность: 44:11
Источник (релизер): собственный рип с оригинального диска.
Наличие сканов в содержимом раздачи: да
Треклист:
01. Capricorn Moon
02. 27 Cooper Square
03. Exhibition
 
Лог создания рипа
Exact Audio Copy V0.99 prebeta 5 from 4. May 2009
EAC extraction logfile from 8. March 2011, 21:57
Marion Brown / Marion Brown Quartet
Used drive : TSSTcorpCDDVDW SH-S222A Adapter: 1 ID: 0
Read mode : Secure
Utilize accurate stream : Yes
Defeat audio cache : Yes
Make use of C2 pointers : No
Read offset correction : 6
Overread into Lead-In and Lead-Out : No
Fill up missing offset samples with silence : Yes
Delete leading and trailing silent blocks : No
Null samples used in CRC calculations : Yes
Used interface : Installed external ASPI interface
Gap handling : Appended to previous track
Used output format : User Defined Encoder
Selected bitrate : 768 kBit/s
Quality : High
Add ID3 tag : No
Command line compressor : C:\Tool\Compress\FLAC\flac.exe
Additional command line options : -V -8 -T "ARTIST=%a" -T "TITLE=%t" -T "ALBUM=%g" -T "TRACKNUMBER=%n" -T "GENRE=%m" %s
TOC of the extracted CD
Track | Start | Length | Start sector | End sector
---------------------------------------------------------
1 | 0:00.00 | 22:29.63 | 0 | 101237
2 | 22:29.63 | 3:50.55 | 101238 | 118542
3 | 26:20.43 | 18:13.30 | 118543 | 200547
Track 1
Filename C:\! UPLOAD\Marion Brown - Marion Brown Quartet (1965) [FLAC]\01 - Capricorn Moon.wav
Pre-gap length 0:00:02.00
Peak level 84.7 %
Track quality 99.9 %
Test CRC ABA9AA85
Copy CRC ABA9AA85
Accurately ripped (confidence 5) [C6A6BA95]
Copy OK
Track 2
Filename C:\! UPLOAD\Marion Brown - Marion Brown Quartet (1965) [FLAC]\02 - 27 Cooper Square.wav
Pre-gap length 0:00:03.70
Peak level 74.8 %
Track quality 100.0 %
Test CRC 8DE91515
Copy CRC 8DE91515
Accurately ripped (confidence 5) [CAD9A724]
Copy OK
Track 3
Filename C:\! UPLOAD\Marion Brown - Marion Brown Quartet (1965) [FLAC]\03 - Exhibition.wav
Pre-gap length 0:00:05.00
Peak level 99.6 %
Track quality 100.0 %
Test CRC 99EF7004
Copy CRC 99EF7004
Accurately ripped (confidence 5) [FC4A0557]
Copy OK
All tracks accurately ripped
No errors occurred
End of status report
 
Содержание индексной карты (.CUE)
REM GENRE Jazz
REM DATE 1965
REM DISCID 1C0A7103
REM COMMENT "ExactAudioCopy v0.99pb5"
PERFORMER "Marion Brown"
TITLE "Marion Brown Quartet"
FILE "01 - Capricorn Moon.wav" WAVE
TRACK 01 AUDIO
TITLE "Capricorn Moon"
PERFORMER "Marion Brown"
INDEX 01 00:00:00
TRACK 02 AUDIO
TITLE "27 Cooper Square"
PERFORMER "Marion Brown"
INDEX 00 22:26:10
FILE "02 - 27 Cooper Square.wav" WAVE
INDEX 01 00:00:00
TRACK 03 AUDIO
TITLE "Exhibition"
PERFORMER "Marion Brown"
INDEX 00 03:45:55
FILE "03 - Exhibition.wav" WAVE
INDEX 01 00:00:00
Доп. информация: Recorded in NYC, in November, 1965
 
Об исполнителе (группе)
The first ESP album of the much discussed alto saxophonist who is strongly endorsed by Leroi Jones.
 
Об альбоме (сборнике)
"Alto saxophonist Marion Brown, a key member of the avant-garde jazz scene, first arrived in New York in 1965 where he landed his first session playing on John Coltrane's historic Ascension album. By the end of that same year Brown had already recorded this self-titled debut as front man on ESP-Disk, featuring Alan Shorter on trumpet and Ronnie Boykins on bass. His follow up album for ESP (Why Not?) came the following year, along with his critically acclaimed Three For Shepp on Impulse! (a response to Shepp's Four For Trane), which featured one side of his own compositions and one side of Shepp material. Brown is one of the most talented (if lesser known) players of the '60s jazz avant-garde and this historical release secures his place as one of the major voices in jazz." - Forced Exposure
 
Состав
Alan Shorter - trumpet (1,2)
Marion Brown - alto sax
Bennie Maupin - tenor sax (3)
Reggie Johnson - bass
Ronnie Boykins - bass (1)
Rashied Ali - drums, percussion
По всем вопросам пишите личное сообщение пользователю M0p94ok.
09:50
134
Нет комментариев. Ваш будет первым!