Вы используете незарегистрированную версию компонента "Вкладки"!

Поиск

(Free Jazz) Hession - Wilkinson - Fell ~ Foom! Foom! - 1992, FLAC (tracks+.cue) lossless

Треклист:
Hession - Wilkinson - Fell ~ Foom! Foom!
Жанр: Free Jazz
Страна-производитель диска: UK / Austria
Год издания диска: 1992
Издатель (лейбл): Bruce's Fingers
Номер по каталогу: BF5
Аудио кодек: FLAC (*.flac)
Тип рипа: tracks+.cue
Битрейт аудио: lossless
Продолжительность: 54:24
Источник (релизер): собственный рип с оригинального диска.
Наличие сканов в содержимом раздачи: да
Треклист:
01. 12 Minutes For George 10:51
02. The Alphabet Poised Like Twenty-Six Frozen Ducklings 04:41
03. Ballad Of Otis Twelvepersons 15:10
04. The Man Who Was Impervious To Temperature 12:43
05. Snog With My Drums 04:19
06. 48 Hours In A Resolute Atmosphere 07:05
 
Лог создания рипа
Exact Audio Copy V0.99 prebeta 5 from 4. May 2009
EAC extraction logfile from 9. March 2011, 0:06
Hession - Wilkinson - Fell / foom! foom!
Used drive : TSSTcorpCDDVDW SH-S222A Adapter: 1 ID: 0
Read mode : Secure
Utilize accurate stream : Yes
Defeat audio cache : Yes
Make use of C2 pointers : No
Read offset correction : 6
Overread into Lead-In and Lead-Out : No
Fill up missing offset samples with silence : Yes
Delete leading and trailing silent blocks : No
Null samples used in CRC calculations : Yes
Used interface : Installed external ASPI interface
Gap handling : Appended to previous track
Used output format : User Defined Encoder
Selected bitrate : 768 kBit/s
Quality : High
Add ID3 tag : No
Command line compressor : C:\Tool\Compress\FLAC\flac.exe
Additional command line options : -V -8 -T "ARTIST=%a" -T "TITLE=%t" -T "ALBUM=%g" -T "TRACKNUMBER=%n" -T "GENRE=%m" %s
TOC of the extracted CD
Track | Start | Length | Start sector | End sector
---------------------------------------------------------
1 | 0:00.00 | 10:51.12 | 0 | 48836
2 | 10:51.12 | 4:41.65 | 48837 | 69976
3 | 15:33.02 | 15:10.58 | 69977 | 138284
4 | 30:43.60 | 12:43.20 | 138285 | 195529
5 | 43:27.05 | 4:19.25 | 195530 | 214979
6 | 47:46.30 | 7:05.42 | 214980 | 246896
Track 1
Filename C:\! UPLOAD\Hession - Wilkinson - Fell - Foom! Foom! (1992) [FLAC]\01 - 12 Minutes For George.wav
Pre-gap length 0:00:02.00
Peak level 93.7 %
Track quality 99.9 %
Test CRC 501D9C6F
Copy CRC 501D9C6F
Accurately ripped (confidence 2) [FA3FA5C0]
Copy OK
Track 2
Filename C:\! UPLOAD\Hession - Wilkinson - Fell - Foom! Foom! (1992) [FLAC]\02 - The Alphabet Poised Like Twenty-six Frozen Ducklings.wav
Pre-gap length 0:00:11.73
Peak level 58.1 %
Track quality 100.0 %
Test CRC 447D874D
Copy CRC 447D874D
Accurately ripped (confidence 2) [FDFE7269]
Copy OK
Track 3
Filename C:\! UPLOAD\Hession - Wilkinson - Fell - Foom! Foom! (1992) [FLAC]\03 - Ballad of Otis Twelvepersons.wav
Pre-gap length 0:00:08.00
Peak level 80.3 %
Track quality 100.0 %
Test CRC 9E302926
Copy CRC 9E302926
Accurately ripped (confidence 2) [32CE1C46]
Copy OK
Track 4
Filename C:\! UPLOAD\Hession - Wilkinson - Fell - Foom! Foom! (1992) [FLAC]\04 - the Man Who Was Impervious To Temperature.wav
Pre-gap length 0:00:03.24
Peak level 90.6 %
Track quality 100.0 %
Test CRC 93DA2932
Copy CRC 93DA2932
Accurately ripped (confidence 2) [F765025E]
Copy OK
Track 5
Filename C:\! UPLOAD\Hession - Wilkinson - Fell - Foom! Foom! (1992) [FLAC]\05 - Snog With My Drums.wav
Pre-gap length 0:00:03.64
Peak level 28.7 %
Track quality 99.9 %
Test CRC 89A35CE4
Copy CRC 89A35CE4
Accurately ripped (confidence 2) [BEBFEC11]
Copy OK
Track 6
Filename C:\! UPLOAD\Hession - Wilkinson - Fell - Foom! Foom! (1992) [FLAC]\06 - 48 Hours In A Resolute Atmosphere.wav
Pre-gap length 0:00:03.04
Peak level 100.0 %
Track quality 100.0 %
Test CRC A267E813
Copy CRC A267E813
Accurately ripped (confidence 2) [20F18F36]
Copy OK
All tracks accurately ripped
No errors occurred
End of status report
 
Содержание индексной карты (.CUE)
REM GENRE Jazz
REM DATE 1992
REM DISCID 5C0CDB06
REM COMMENT "ExactAudioCopy v0.99pb5"
CATALOG 0389010000058
PERFORMER "Hession - Wilkinson - Fell"
TITLE "foom! foom!"
FILE "01 - 12 Minutes For George.wav" WAVE
TRACK 01 AUDIO
TITLE "12 Minutes For George"
PERFORMER "Hession - Wilkinson - Fell"
INDEX 01 00:00:00
TRACK 02 AUDIO
TITLE "The Alphabet Poised Like Twenty-six Frozen Ducklings"
PERFORMER "Hession - Wilkinson - Fell"
INDEX 00 10:39:32
FILE "02 - The Alphabet Poised Like Twenty-six Frozen Ducklings.wav" WAVE
INDEX 01 00:00:00
TRACK 03 AUDIO
TITLE "Ballad of Otis Twelvepersons"
PERFORMER "Hession - Wilkinson - Fell"
INDEX 00 04:33:65
FILE "03 - Ballad of Otis Twelvepersons.wav" WAVE
INDEX 01 00:00:00
TRACK 04 AUDIO
TITLE "the Man Who Was Impervious To Temperature"
PERFORMER "Hession - Wilkinson - Fell"
INDEX 00 15:07:40
FILE "04 - the Man Who Was Impervious To Temperature.wav" WAVE
INDEX 01 00:00:00
TRACK 05 AUDIO
TITLE "Snog With My Drums"
PERFORMER "Hession - Wilkinson - Fell"
INDEX 00 12:39:47
FILE "05 - Snog With My Drums.wav" WAVE
INDEX 01 00:00:00
TRACK 06 AUDIO
TITLE "48 Hours In A Resolute Atmosphere"
PERFORMER "Hession - Wilkinson - Fell"
INDEX 00 04:16:22
FILE "06 - 48 Hours In A Resolute Atmosphere.wav" WAVE
INDEX 01 00:00:00
Доп. информация:
Recorded February 1992
 
Об исполнителе (группе)
"Wilkinson is a saxophonist whose work is on a par with Charles Gayle, David Ware, Peter Brötzmann or any of the other heavyweight reedmen who are still playing hard and free. I can think of many young American conservatives who would do well to have their heads shoved deep into the bell of his baritone for a season or two." Byron Coley FORCED EXPOSURE
 
Об альбоме (сборнике)
"An essential record. Very fine; an outstanding record that yields consistent pleasure and demands a place in any comprehensive collection." THE PENGUIN GUIDE TO JAZZ
 
Состав
Alan Wilkinson - soprano sax, alto sax, baritone sax
Simon H. Fell - double bass
Paul Hession - drums
Any questions -> support@pro-jazz.com. По всем вопросам пишите -> support@pro-jazz.com
09:51
120
Нет комментариев. Ваш будет первым!