Поиск

(Free Jazz) John Blum - Astrogeny Quartet - 2006, FLAC (tracks+.cue) lossless

Треклист:
John Blum - Astrogeny Quartet
Жанр: Free Jazz
Страна-производитель диска: USA
Год издания диска: 2006
Издатель (лейбл): Eremite Records
Номер по каталогу: MTE 049
Аудио кодек: FLAC (*.flac)
Тип рипа: tracks+.cue
Битрейт аудио: lossless
Продолжительность: 46:29
Источник (релизер): собственный рип с оригинального диска.
Наличие сканов в содержимом раздачи: да
Треклист:
01. Simultanium (12:20)
02. Astrongeny (15:17)
03. Encomia (06:27)
04. Dieci (09:03)
05. Astrogeny Reprise (03:12)
 
Лог создания рипа
Exact Audio Copy V0.99 prebeta 5 from 4. May 2009
EAC extraction logfile from 14. March 2011, 23:07
John Blum Quartet / Astrogeny
Used drive : TSSTcorpCDDVDW SH-S222A Adapter: 1 ID: 0
Read mode : Secure
Utilize accurate stream : Yes
Defeat audio cache : Yes
Make use of C2 pointers : No
Read offset correction : 6
Overread into Lead-In and Lead-Out : No
Fill up missing offset samples with silence : Yes
Delete leading and trailing silent blocks : No
Null samples used in CRC calculations : Yes
Used interface : Installed external ASPI interface
Gap handling : Appended to previous track
Used output format : User Defined Encoder
Selected bitrate : 768 kBit/s
Quality : High
Add ID3 tag : No
Command line compressor : C:\Tool\Compress\FLAC\flac.exe
Additional command line options : -8 -V -T "ARTIST=%a" -T "TITLE=%t" -T "ALBUM=%g" -T "DATE=%y" -T "TRACKNUMBER=%n" -T "TOTALTRACKS=%x" -T "GENRE=%m" -T "ALBUM ARTIST=%v" -T "COMMENT=EAC V0.99 prebeta 5, Secure Mode, Test & Copy, AccurateRip, FLAC -8" %s
TOC of the extracted CD
Track | Start | Length | Start sector | End sector
---------------------------------------------------------
1 | 0:00.00 | 12:23.25 | 0 | 55749
2 | 12:23.25 | 15:19.02 | 55750 | 124676
3 | 27:42.27 | 6:29.46 | 124677 | 153897
4 | 34:11.73 | 9:05.39 | 153898 | 194811
5 | 43:17.37 | 3:12.17 | 194812 | 209228
Track 1
Filename C:\! UPLOAD\John Blum - John Blum Astrogeny Quartet (2006) [FLAC]\01 - Simaltanium.wav
Pre-gap length 0:00:02.00
Peak level 99.4 %
Track quality 100.0 %
Test CRC BA05E88E
Copy CRC BA05E88E
Track not present in AccurateRip database
Copy OK
Track 2
Filename C:\! UPLOAD\John Blum - John Blum Astrogeny Quartet (2006) [FLAC]\02 - Astrogeny.wav
Pre-gap length 0:00:02.72
Peak level 99.4 %
Track quality 100.0 %
Test CRC 8B4B9EEF
Copy CRC 8B4B9EEF
Track not present in AccurateRip database
Copy OK
Track 3
Filename C:\! UPLOAD\John Blum - John Blum Astrogeny Quartet (2006) [FLAC]\03 - Encomia.wav
Pre-gap length 0:00:01.73
Peak level 99.4 %
Track quality 100.0 %
Test CRC E61E8B89
Copy CRC E61E8B89
Track not present in AccurateRip database
Copy OK
Track 4
Filename C:\! UPLOAD\John Blum - John Blum Astrogeny Quartet (2006) [FLAC]\04 - Dieci.wav
Pre-gap length 0:00:01.73
Peak level 99.4 %
Track quality 100.0 %
Test CRC 1D75692F
Copy CRC 1D75692F
Track not present in AccurateRip database
Copy OK
Track 5
Filename C:\! UPLOAD\John Blum - John Blum Astrogeny Quartet (2006) [FLAC]\05 - Astrogeny Reprise.wav
Pre-gap length 0:00:01.73
Peak level 99.4 %
Track quality 100.0 %
Test CRC 2B0A3CAD
Copy CRC 2B0A3CAD
Track not present in AccurateRip database
Copy OK
None of the tracks are present in the AccurateRip database
No errors occurred
End of status report
 
Содержание индексной карты (.CUE)
REM GENRE Jazz
REM DATE 2006
REM DISCID 460AE505
REM COMMENT "ExactAudioCopy v0.99pb5"
PERFORMER "John Blum Quartet"
TITLE "Astrogeny"
FILE "01 - Simaltanium.wav" WAVE
TRACK 01 AUDIO
TITLE "Simaltanium"
PERFORMER "John Blum Quartet"
ISRC USTME9850201
FLAGS DCP
INDEX 01 00:00:00
TRACK 02 AUDIO
TITLE "Astrogeny"
PERFORMER "John Blum Quartet"
ISRC USTME9850202
FLAGS DCP
INDEX 00 12:20:46
FILE "02 - Astrogeny.wav" WAVE
INDEX 01 00:00:00
TRACK 03 AUDIO
TITLE "Encomia"
PERFORMER "John Blum Quartet"
ISRC USTME9850203
FLAGS DCP
INDEX 00 15:17:22
FILE "03 - Encomia.wav" WAVE
INDEX 01 00:00:00
TRACK 04 AUDIO
TITLE "Dieci"
PERFORMER "John Blum Quartet"
ISRC USTME9850204
FLAGS DCP
INDEX 00 06:27:66
FILE "04 - Dieci.wav" WAVE
INDEX 01 00:00:00
TRACK 05 AUDIO
TITLE "Astrogeny Reprise"
PERFORMER "John Blum Quartet"
ISRC USTME9850205
FLAGS DCP
INDEX 00 09:03:59
FILE "05 - Astrogeny Reprise.wav" WAVE
INDEX 01 00:00:00
Доп. информация:
Recorded: 11 February 1998, The Open Center, NYC engineer: Alen Hadzi-Stefanov
 
Об исполнителе (группе)
Pianist John Blum was born in New York in 1968 & has been a mainstay of that city's free jazz scene for well over a decade, but he remains woefully under-recorded, despite an exceptional pedigree: studies with Bill Dixon, Milford Graves, Borah Bergman & Cecil Taylor. His work is quite distinct from that of Bergman & Taylor. Both have always been highly note-sensitive --even in the latter's more exuberant moments, there's an implacable logic of pitch & interval --but Blum is more concerned with shape & contour than individual notes.
This is Blum's first release under his own name since Naked Mirror, his impressive 2002 solo debut, but was in fact recorded four years before that, & is the first --& as it turned out only-- concert by the Astrogeny Quartet, in which the pianist was joined by expat Italian altoist/clarinetist Antonio Grippi & the titanic rhythm team of William Parker & Denis Charles. The quartet was short-lived because Charles died barely six weeks later. But the percussionist is with Blum every inch of the way, punctuating his stream of consciousness texts with strategic commas on tom toms & snare. Parker lays down his asymmetrical grooves, powering the music forward without ever dragging it into regular tempo.
Grippi's contribution is not to be overlooked: in addition to penning all the music, with the exception of the elegiac collective improvisation "Encomia," his modally inflected lines & occasional passionate forays into the upper register provide the harmonic & melodic link between Blum's expressionism & the rhythm section's ebullient free-bop. -- Dan Warburton, The Wire
 
Об альбоме (сборнике)
there are few sessions to rival this one for sheer urgency and gusto. it's as if something pent-up in these four musicians waited for this combination of players to unleash it--the music explodes into action. pianist john blum is a secret hero of new york's free jazz community, known as a proficient & forceful improviser in the tradition of his mentors, borah bergmann & cecil taylor. blum's performance on astrogeny is his shining moment on disc to date. the legendary denis charles was at his best when paired with william parker; together they formed one of the great, yet under-documented, rhythm-sections in the music. antonio grippi, a shadowy figure in free-jazz history, makes an appropriately rousing contribution on alto saxophone.
 
Состав
John Blum - piano
Denis Charles - drums
Antonio Grippi - alto saxophone, alto-clarinet
William Parker - bass
По всем вопросам пишите личное сообщение пользователю M0p94ok.
09:49
122
Нет комментариев. Ваш будет первым!