Вы используете незарегистрированную версию компонента "Вкладки"!

Поиск

(Free Jazz) Marc Edwards Quartet - Black Queen - 1991, FLAC (tracks+.cue) lossless

Треклист:
Marc Edwards Quartet - Black Queen
Жанр: Free Jazz
Страна-производитель диска: USA
Год издания диска: 1991
Издатель (лейбл): Alpha Phonics Recording
Номер по каталогу: APCD 1
Аудио кодек: FLAC (*.flac)
Тип рипа: tracks+.cue
Битрейт аудио: lossless
Продолжительность: 1:01:02
Источник (релизер): собственный рип с оригинального диска.
Наличие сканов в содержимом раздачи: да
Треклист:
01. Creation (10:52)
02. Bumblebees and Marigold Flowers (12:29)
03. Lite Free (10:31)
04. Black Queen (13:00)
05 Quadratic Equation
Part I (3:24)
Part II (4:21)
Part III (4:41)
Part IV (0:29)
06 A New Day- A New Age (9:22)
 
Лог создания рипа
Exact Audio Copy V0.99 prebeta 5 from 4. May 2009
EAC extraction logfile from 12. March 2011, 21:40
Marc Edwards Quartet / Black Queen
Used drive : TSSTcorpCDDVDW SH-S222A Adapter: 1 ID: 0
Read mode : Secure
Utilize accurate stream : Yes
Defeat audio cache : Yes
Make use of C2 pointers : No
Read offset correction : 6
Overread into Lead-In and Lead-Out : No
Fill up missing offset samples with silence : Yes
Delete leading and trailing silent blocks : No
Null samples used in CRC calculations : Yes
Used interface : Installed external ASPI interface
Gap handling : Appended to previous track
Used output format : User Defined Encoder
Selected bitrate : 768 kBit/s
Quality : High
Add ID3 tag : No
Command line compressor : C:\Tool\Compress\FLAC\flac.exe
Additional command line options : -8 -V -T "ARTIST=%a" -T "TITLE=%t" -T "ALBUM=%g" -T "DATE=%y" -T "TRACKNUMBER=%n" -T "TOTALTRACKS=%x" -T "GENRE=%m" -T "ALBUM ARTIST=%v" -T "COMMENT=EAC V0.99 prebeta 5, Secure Mode, Test & Copy, AccurateRip, FLAC -8" %s
TOC of the extracted CD
Track | Start | Length | Start sector | End sector
---------------------------------------------------------
1 | 0:00.00 | 10:52.12 | 0 | 48911
2 | 10:52.12 | 12:29.63 | 48912 | 105149
3 | 23:22.00 | 10:31.00 | 105150 | 152474
4 | 33:53.00 | 6:08.62 | 152475 | 180136
5 | 40:01.62 | 13:00.65 | 180137 | 238701
6 | 53:02.52 | 9:22.00 | 238702 | 280851
Track 1
Filename C:\! UPLOAD\Marc Edwards Quartet - Black Queen (1991) [FLAC]\01 - Creation.wav
Pre-gap length 0:00:02.00
Peak level 76.6 %
Track quality 99.9 %
Test CRC D018E142
Copy CRC D018E142
Accurately ripped (confidence 1) [82FF4E70]
Copy OK
Track 2
Filename C:\! UPLOAD\Marc Edwards Quartet - Black Queen (1991) [FLAC]\02 - Bumblebees and Marigold Flowers.wav
Pre-gap length 0:00:06.28
Peak level 100.0 %
Track quality 100.0 %
Test CRC 6953947E
Copy CRC 6953947E
Accurately ripped (confidence 1) [CF3372CC]
Copy OK
Track 3
Filename C:\! UPLOAD\Marc Edwards Quartet - Black Queen (1991) [FLAC]\03 - Lite Free.wav
Pre-gap length 0:00:03.00
Peak level 98.0 %
Track quality 100.0 %
Test CRC 95D1E8D9
Copy CRC 95D1E8D9
Accurately ripped (confidence 1) [0B362182]
Copy OK
Track 4
Filename C:\! UPLOAD\Marc Edwards Quartet - Black Queen (1991) [FLAC]\04 - Black Queen.wav
Pre-gap length 0:00:01.57
Peak level 88.7 %
Track quality 100.0 %
Test CRC 8D901154
Copy CRC 8D901154
Accurately ripped (confidence 1) [1AC0C094]
Copy OK
Track 5
Filename C:\! UPLOAD\Marc Edwards Quartet - Black Queen (1991) [FLAC]\05 - Quadratic Equation.wav
Pre-gap length 0:00:04.36
Peak level 94.2 %
Track quality 100.0 %
Test CRC 5ED68B18
Copy CRC 5ED68B18
Accurately ripped (confidence 1) [DD19C5F6]
Copy OK
Track 6
Filename C:\! UPLOAD\Marc Edwards Quartet - Black Queen (1991) [FLAC]\06 - A New Day - A New Age.wav
Pre-gap length 0:00:05.86
Peak level 58.2 %
Track quality 100.0 %
Test CRC E900E08A
Copy CRC E900E08A
Accurately ripped (confidence 1) [D67CBF86]
Copy OK
All tracks accurately ripped
No errors occurred
End of status report
 
Содержание индексной карты (.CUE)
REM GENRE Jazz
REM DATE 1991
REM DISCID 3D0EA006
REM COMMENT "ExactAudioCopy v0.99pb5"
CATALOG 0000000000000
PERFORMER "Marc Edwards Quartet"
TITLE "Black Queen"
FILE "01 - Creation.wav" WAVE
TRACK 01 AUDIO
TITLE "Creation"
PERFORMER "Marc Edwards Quartet"
INDEX 01 00:00:00
TRACK 02 AUDIO
TITLE "Bumblebees and Marigold Flowers"
PERFORMER "Marc Edwards Quartet"
INDEX 00 10:45:66
FILE "02 - Bumblebees and Marigold Flowers.wav" WAVE
INDEX 01 00:00:00
TRACK 03 AUDIO
TITLE "Lite Free"
PERFORMER "Marc Edwards Quartet"
INDEX 00 12:26:63
FILE "03 - Lite Free.wav" WAVE
INDEX 01 00:00:00
TRACK 04 AUDIO
TITLE "Black Queen"
PERFORMER "Marc Edwards Quartet"
INDEX 00 10:29:32
FILE "04 - Black Queen.wav" WAVE
INDEX 01 00:00:00
TRACK 05 AUDIO
TITLE "Quadratic Equation"
PERFORMER "Marc Edwards Quartet"
INDEX 00 06:04:35
FILE "05 - Quadratic Equation.wav" WAVE
INDEX 01 00:00:00
INDEX 02 03:24:00
INDEX 03 07:45:25
INDEX 04 12:26:23
TRACK 06 AUDIO
TITLE "A New Day - A New Age"
PERFORMER "Marc Edwards Quartet"
INDEX 00 12:55:00
FILE "06 - A New Day - A New Age.wav" WAVE
INDEX 01 00:00:00
Доп. информация:
Recorded November 12, 1990, at East Side Sound Studio, New York City
 
Состав
Rob Brown - alto sax
Matthew Shipp - piano
Fred Hopkins - bass
Marc Edwards - drums; perc
Laverne Maxwell - spoken words
Any questions -> support@pro-jazz.com. По всем вопросам пишите -> support@pro-jazz.com
10:22
134
Нет комментариев. Ваш будет первым!