Вы используете незарегистрированную версию компонента "Вкладки"!

Поиск

(Free Jazz) Ernest Dawkins' New Horizon Ensemble - Mother's Blue Velvet Shoes - 1998, FLAC (tracks+.cue) lossless

Треклист:
Ernest Dawkins' New Horizon Ensemble - Mother's Blue Velvet Shoes
Жанр: Free Jazz
Страна-производитель диска: USA
Год издания диска: 1998
Издатель (лейбл): DAWK Music
Номер по каталогу: 001
Аудио кодек: FLAC (*.flac)
Тип рипа: tracks+.cue
Битрейт аудио: lossless
Продолжительность: 1:03:21
Источник (релизер): собственный рип с оригинального диска.
Наличие сканов в содержимом раздачи: да
Треклист:
01. 10-16-if 9:49
02. Many Favors Part I 16:57
03. Many Favors Part II 7:32
04. Mother's Blue Velvet Shoes 5:58
05. Proof That The Evidence Was Missing Intro 6:39
06. Proof That The Evidence Was Missing 18:46
 
Лог создания рипа
Exact Audio Copy V0.99 prebeta 5 from 4. May 2009
EAC extraction logfile from 13. March 2011, 1:25
Ernest Dawkins' New Horizon Ensemble / Mother's Blue Velvet Shoes
Used drive : TSSTcorpCDDVDW SH-S222A Adapter: 1 ID: 0
Read mode : Secure
Utilize accurate stream : Yes
Defeat audio cache : Yes
Make use of C2 pointers : No
Read offset correction : 6
Overread into Lead-In and Lead-Out : No
Fill up missing offset samples with silence : Yes
Delete leading and trailing silent blocks : No
Null samples used in CRC calculations : Yes
Used interface : Installed external ASPI interface
Gap handling : Appended to previous track
Used output format : User Defined Encoder
Selected bitrate : 768 kBit/s
Quality : High
Add ID3 tag : No
Command line compressor : C:\Tool\Compress\FLAC\flac.exe
Additional command line options : -8 -V -T "ARTIST=%a" -T "TITLE=%t" -T "ALBUM=%g" -T "DATE=%y" -T "TRACKNUMBER=%n" -T "TOTALTRACKS=%x" -T "GENRE=%m" -T "ALBUM ARTIST=%v" -T "COMMENT=EAC V0.99 prebeta 5, Secure Mode, Test & Copy, AccurateRip, FLAC -8" %s
TOC of the extracted CD
Track | Start | Length | Start sector | End sector
---------------------------------------------------------
1 | 0:00.00 | 9:49.31 | 0 | 44205
2 | 9:49.31 | 16:57.39 | 44206 | 120519
3 | 26:46.70 | 7:32.19 | 120520 | 154438
4 | 34:19.14 | 5:59.19 | 154439 | 181382
5 | 40:18.33 | 6:39.29 | 181383 | 211336
6 | 46:57.62 | 18:52.12 | 211337 | 296248
Track 1
Filename C:\! UPLOAD\Ernest Dawkins' New Horizon Ensemble - Mother's Blue Velvet Shoes (1997) [FLAC]\01 - 10-16-if.wav
Pre-gap length 0:00:02.00
Peak level 100.0 %
Track quality 99.9 %
Test CRC 3CB1E060
Copy CRC 3CB1E060
Track not present in AccurateRip database
Copy OK
Track 2
Filename C:\! UPLOAD\Ernest Dawkins' New Horizon Ensemble - Mother's Blue Velvet Shoes (1997) [FLAC]\02 - Many Favors Part I.wav
Peak level 100.0 %
Track quality 100.0 %
Test CRC 8257D70A
Copy CRC 8257D70A
Track not present in AccurateRip database
Copy OK
Track 3
Filename C:\! UPLOAD\Ernest Dawkins' New Horizon Ensemble - Mother's Blue Velvet Shoes (1997) [FLAC]\03 - Many Favors Part II.wav
Peak level 100.0 %
Track quality 99.9 %
Test CRC F2594264
Copy CRC F2594264
Track not present in AccurateRip database
Copy OK
Track 4
Filename C:\! UPLOAD\Ernest Dawkins' New Horizon Ensemble - Mother's Blue Velvet Shoes (1997) [FLAC]\04 - Mother's Blue Velvet Shoes.wav
Peak level 100.0 %
Track quality 100.0 %
Test CRC F46BA07E
Copy CRC F46BA07E
Track not present in AccurateRip database
Copy OK
Track 5
Filename C:\! UPLOAD\Ernest Dawkins' New Horizon Ensemble - Mother's Blue Velvet Shoes (1997) [FLAC]\05 - Proof That The Evidence Was Missing Intro.wav
Peak level 98.9 %
Track quality 100.0 %
Test CRC 12A9712C
Copy CRC 12A9712C
Track not present in AccurateRip database
Copy OK
Track 6
Filename C:\! UPLOAD\Ernest Dawkins' New Horizon Ensemble - Mother's Blue Velvet Shoes (1997) [FLAC]\06 - Proof That The Evidence Was Missing.wav
Peak level 100.0 %
Track quality 100.0 %
Test CRC 349D428D
Copy CRC 349D428D
Track not present in AccurateRip database
Copy OK
None of the tracks are present in the AccurateRip database
No errors occurred
End of status report
 
Содержание индексной карты (.CUE)
REM GENRE Jazz
REM DATE 1997
REM DISCID 450F6D06
REM COMMENT "ExactAudioCopy v0.99pb5"
PERFORMER "Ernest Dawkins' New Horizon Ensemble"
TITLE "Mother's Blue Velvet Shoes"
FILE "01 - 10-16-if.wav" WAVE
TRACK 01 AUDIO
TITLE "10-16-if"
PERFORMER "Ernest Dawkins' New Horizon Ensemble"
INDEX 01 00:00:00
FILE "02 - Many Favors Part I.wav" WAVE
TRACK 02 AUDIO
TITLE "Many Favors Part I"
PERFORMER "Ernest Dawkins' New Horizon Ensemble"
INDEX 01 00:00:00
FILE "03 - Many Favors Part II.wav" WAVE
TRACK 03 AUDIO
TITLE "Many Favors Part II"
PERFORMER "Ernest Dawkins' New Horizon Ensemble"
INDEX 01 00:00:00
FILE "04 - Mother's Blue Velvet Shoes.wav" WAVE
TRACK 04 AUDIO
TITLE "Mother's Blue Velvet Shoes"
PERFORMER "Ernest Dawkins' New Horizon Ensemble"
INDEX 01 00:00:00
FILE "05 - Proof That The Evidence Was Missing Intro.wav" WAVE
TRACK 05 AUDIO
TITLE "Proof That The Evidence Was Missing Intro"
PERFORMER "Ernest Dawkins' New Horizon Ensemble"
INDEX 01 00:00:00
FILE "06 - Proof That The Evidence Was Missing.wav" WAVE
TRACK 06 AUDIO
TITLE "Proof That The Evidence Was Missing"
PERFORMER "Ernest Dawkins' New Horizon Ensemble"
INDEX 01 00:00:00
Доп. информация:
Recorded live at the Velvet Lounge, Chicago, May 9, 1997
 
Об альбоме (сборнике)
Decidedly modern in outlook and approach, alto and tenor saxophonist Dawkins is a past president of the AACM and much of his work is suffused with this organization's influence. Nevertheless, in his playing Dawkins consistently displays an affinity with the blues. It is this quality which contributes towards making Dawkins' music somewhat more readily accessible to the wider audience than that of the AACM. His New Horizons Ensemble, a latter-day group formed in 1979 by Dawkins, Ameen Muhammad, Ben Israel and Reggie Nicholson Dawkins, is vital, exuberant and rich with the multiple influences that mark his musical interests.
 
Состав
Ernest Dawkins - alto sax, tenor sax
Yosef Ben Israel - bass
Steve Berry - trombone
Vincent Davis - drums
Ameen Muhammad - trumpet
Jeff Parker - electric guitar
Kim Ransom - poetry
По всем вопросам пишите личное сообщение пользователю M0p94ok.
10:21
112
Нет комментариев. Ваш будет первым!