Вы используете незарегистрированную версию компонента "Вкладки"!

Поиск

(Free Jazz, Free Improvisation) Fred Lonberg-Holm - Cabin, Cemetery, Forest - 2009, FLAC (tracks+.cue) lossless

Треклист:
Fred Lonberg-Holm - Cabin, Cemetery, Forest
Жанр: Free Jazz, Free Improvisation
Страна-производитель диска: USA
Год издания диска: 2009
Издатель (лейбл): Flying Aspidistra
Номер по каталогу: #8
Аудио кодек: FLAC (*.flac)
Тип рипа: tracks+.cue
Битрейт аудио: lossless
Продолжительность: 52:51
Источник (релизер): собственный рип с оригинального диска.
Наличие сканов в содержимом раздачи: да
Треклист:
01. Forest
02. Cabin
03. Cabin
04. Cemetery
05. Cabin
06. Forest
07. Cabin
08. Forest
09. Forest
 
Лог создания рипа
Exact Audio Copy V0.99 prebeta 5 from 4. May 2009
EAC extraction logfile from 21. February 2011, 12:52
Fred Lonberg-Holm / Cabin, Cemetery, Forest
Used drive : TSSTcorpCDDVDW SH-S222A Adapter: 1 ID: 0
Read mode : Secure
Utilize accurate stream : Yes
Defeat audio cache : Yes
Make use of C2 pointers : No
Read offset correction : 6
Overread into Lead-In and Lead-Out : No
Fill up missing offset samples with silence : Yes
Delete leading and trailing silent blocks : No
Null samples used in CRC calculations : Yes
Used interface : Installed external ASPI interface
Gap handling : Appended to previous track
Used output format : User Defined Encoder
Selected bitrate : 768 kBit/s
Quality : High
Add ID3 tag : No
Command line compressor : C:\Tool\Compress\FLAC\flac.exe
Additional command line options : -V -8 -T "ARTIST=%a" -T "TITLE=%t" -T "ALBUM=%g" -T "TRACKNUMBER=%n" -T "GENRE=%m" %s
TOC of the extracted CD
Track | Start | Length | Start sector | End sector
---------------------------------------------------------
1 | 0:00.00 | 4:47.34 | 0 | 21558
2 | 4:47.34 | 6:58.14 | 21559 | 52922
3 | 11:45.48 | 6:20.62 | 52923 | 81484
4 | 18:06.35 | 8:06.41 | 81485 | 117975
5 | 26:13.01 | 7:28.05 | 117976 | 151580
6 | 33:41.06 | 2:13.18 | 151581 | 161573
7 | 35:54.24 | 7:37.63 | 161574 | 195911
8 | 43:32.12 | 6:10.48 | 195912 | 223709
9 | 49:42.60 | 3:08.42 | 223710 | 237851
Track 1
Filename C:\! UPLOAD\Fred Lonberg-Holm - Cabin, Cemetery, Forest (2009) [FLAC]\01 - Forest.wav
Pre-gap length 0:00:02.00
Peak level 62.1 %
Track quality 100.0 %
Test CRC 2FBFCE71
Copy CRC 2FBFCE71
Track not present in AccurateRip database
Copy OK
Track 2
Filename C:\! UPLOAD\Fred Lonberg-Holm - Cabin, Cemetery, Forest (2009) [FLAC]\02 - Cabin.wav
Pre-gap length 0:00:02.00
Peak level 100.0 %
Track quality 100.0 %
Test CRC 07F9759A
Copy CRC 07F9759A
Track not present in AccurateRip database
Copy OK
Track 3
Filename C:\! UPLOAD\Fred Lonberg-Holm - Cabin, Cemetery, Forest (2009) [FLAC]\03 - Cabin.wav
Pre-gap length 0:00:02.00
Peak level 87.4 %
Track quality 100.0 %
Test CRC CF0092CB
Copy CRC CF0092CB
Track not present in AccurateRip database
Copy OK
Track 4
Filename C:\! UPLOAD\Fred Lonberg-Holm - Cabin, Cemetery, Forest (2009) [FLAC]\04 - Cemetery.wav
Pre-gap length 0:00:02.00
Peak level 100.0 %
Track quality 100.0 %
Test CRC A38C1E85
Copy CRC A38C1E85
Track not present in AccurateRip database
Copy OK
Track 5
Filename C:\! UPLOAD\Fred Lonberg-Holm - Cabin, Cemetery, Forest (2009) [FLAC]\05 - Cabin.wav
Pre-gap length 0:00:02.00
Peak level 72.5 %
Track quality 100.0 %
Test CRC 8FFD7A8B
Copy CRC 8FFD7A8B
Track not present in AccurateRip database
Copy OK
Track 6
Filename C:\! UPLOAD\Fred Lonberg-Holm - Cabin, Cemetery, Forest (2009) [FLAC]\06 - Forest.wav
Pre-gap length 0:00:02.00
Peak level 58.9 %
Track quality 100.0 %
Test CRC 67A34411
Copy CRC 67A34411
Track not present in AccurateRip database
Copy OK
Track 7
Filename C:\! UPLOAD\Fred Lonberg-Holm - Cabin, Cemetery, Forest (2009) [FLAC]\07 - Cabin.wav
Pre-gap length 0:00:02.00
Peak level 48.5 %
Track quality 100.0 %
Test CRC F7CCADCB
Copy CRC F7CCADCB
Track not present in AccurateRip database
Copy OK
Track 8
Filename C:\! UPLOAD\Fred Lonberg-Holm - Cabin, Cemetery, Forest (2009) [FLAC]\08 - Forest.wav
Pre-gap length 0:00:02.00
Peak level 43.0 %
Track quality 100.0 %
Test CRC 5D900226
Copy CRC 5D900226
Track not present in AccurateRip database
Copy OK
Track 9
Filename C:\! UPLOAD\Fred Lonberg-Holm - Cabin, Cemetery, Forest (2009) [FLAC]\09 - Forest.wav
Pre-gap length 0:00:02.00
Peak level 74.0 %
Track quality 100.0 %
Test CRC 502D5DFF
Copy CRC 502D5DFF
Track not present in AccurateRip database
Copy OK
None of the tracks are present in the AccurateRip database
No errors occurred
End of status report
 
Содержание индексной карты (.CUE)
REM GENRE Jazz
REM DATE 2009
REM DISCID 7F0C6309
REM COMMENT "ExactAudioCopy v0.99pb5"
PERFORMER "Fred Lonberg-Holm"
TITLE "Cabin, Cemetery, Forest"
FILE "01 - Forest.wav" WAVE
TRACK 01 AUDIO
TITLE "Forest"
PERFORMER "Fred Lonberg-Holm"
ISRC 000000000000
INDEX 01 00:00:00
TRACK 02 AUDIO
TITLE "Cabin"
PERFORMER "Fred Lonberg-Holm"
ISRC 000000000000
INDEX 00 04:45:34
FILE "02 - Cabin.wav" WAVE
INDEX 01 00:00:00
TRACK 03 AUDIO
TITLE "Cabin"
PERFORMER "Fred Lonberg-Holm"
ISRC 000000000000
INDEX 00 06:56:14
FILE "03 - Cabin.wav" WAVE
INDEX 01 00:00:00
TRACK 04 AUDIO
TITLE "Cemetery"
PERFORMER "Fred Lonberg-Holm"
ISRC 000000000000
INDEX 00 06:18:62
FILE "04 - Cemetery.wav" WAVE
INDEX 01 00:00:00
TRACK 05 AUDIO
TITLE "Cabin"
PERFORMER "Fred Lonberg-Holm"
ISRC 000000000000
INDEX 00 08:04:41
FILE "05 - Cabin.wav" WAVE
INDEX 01 00:00:00
TRACK 06 AUDIO
TITLE "Forest"
PERFORMER "Fred Lonberg-Holm"
ISRC 000000000000
INDEX 00 07:26:05
FILE "06 - Forest.wav" WAVE
INDEX 01 00:00:00
TRACK 07 AUDIO
TITLE "Cabin"
PERFORMER "Fred Lonberg-Holm"
ISRC 000000000000
INDEX 00 02:11:18
FILE "07 - Cabin.wav" WAVE
INDEX 01 00:00:00
TRACK 08 AUDIO
TITLE "Forest"
PERFORMER "Fred Lonberg-Holm"
ISRC 000000000000
INDEX 00 07:35:63
FILE "08 - Forest.wav" WAVE
INDEX 01 00:00:00
TRACK 09 AUDIO
TITLE "Forest"
PERFORMER "Fred Lonberg-Holm"
ISRC 000000000000
INDEX 00 06:08:48
FILE "09 - Forest.wav" WAVE
INDEX 01 00:00:00
Доп. информация:
Recorded on August 25, 2009 in Chemung County, NY
 
Об альбоме (сборнике)
Several years ago he launched Flying Aspidistra, a homemade CD-R label, to share items from his archive, including recordings with guitarist David Stackenas and violinist Charlotte Hug. He just released his eighth album on the imprint, Cabin, Cemetery, Forest, which, like all of the CDs, features a hand-stamped woodblock print; this one also features stitching around two edges. The music was made this past August in Chemung County, New York, and it finds the cellist in solo mode, unleashing some of his most tactile, rubbery, and viscous improvisations. The recording picks up the physicality and presence of his playing in a way you don’t always hear, even in live performance.
 
Состав
Fred Lonberg-Holm - SOLO CELLO
Any questions -> support@pro-jazz.com. По всем вопросам пишите -> support@pro-jazz.com
10:20
110
Нет комментариев. Ваш будет первым!