Вы используете незарегистрированную версию компонента "Вкладки"!

Поиск

(Free Improvisation, Free Jazz) Ballister Trio - Bastard String - 2010, FLAC (tracks+.cue) lossless

Треклист:
Ballister Trio - Bastard String
Жанр: Free Improvisation, Free Jazz
Страна-производитель диска: Norway
Год издания диска: 2010
Издатель (лейбл): PNL Records
Номер по каталогу: n/a
Аудио кодек: FLAC (*.flac)
Тип рипа: tracks+.cue
Битрейт аудио: lossless
Продолжительность: 1:13:'4
Источник (релизер): собственный рип с оригинального диска.
Наличие сканов в содержимом раздачи: да
Треклист:
1. Belt And Claw [30:14]
2. Bastard String [9:57]
3. Cocking Lugs [32:48]
 
Лог создания рипа
Exact Audio Copy V0.99 prebeta 5 from 4. May 2009
EAC extraction logfile from 16. March 2011, 23:55
Ballister / Bastard String
Used drive : TSSTcorpCDDVDW SH-S222A Adapter: 1 ID: 0
Read mode : Secure
Utilize accurate stream : Yes
Defeat audio cache : Yes
Make use of C2 pointers : No
Read offset correction : 6
Overread into Lead-In and Lead-Out : No
Fill up missing offset samples with silence : Yes
Delete leading and trailing silent blocks : No
Null samples used in CRC calculations : Yes
Used interface : Installed external ASPI interface
Gap handling : Appended to previous track
Used output format : User Defined Encoder
Selected bitrate : 768 kBit/s
Quality : High
Add ID3 tag : No
Command line compressor : C:\Tool\Compress\FLAC\flac.exe
Additional command line options : -8 -V -T "ARTIST=%a" -T "TITLE=%t" -T "ALBUM=%g" -T "DATE=%y" -T "TRACKNUMBER=%n" -T "TOTALTRACKS=%x" -T "GENRE=%m" -T "ALBUM ARTIST=%v" -T "COMMENT=EAC V0.99 prebeta 5, Secure Mode, Test & Copy, AccurateRip, FLAC -8" %s
TOC of the extracted CD
Track | Start | Length | Start sector | End sector
---------------------------------------------------------
1 | 0:00.00 | 30:20.65 | 0 | 136564
2 | 30:20.65 | 10:05.10 | 136565 | 181949
3 | 40:26.00 | 32:48.69 | 181950 | 329618
Track 1
Filename C:\! UPLOAD\Ballister - Bastard String (2010) [FLAC]\01 - Belt and Claw.wav
Pre-gap length 0:00:02.00
Peak level 100.0 %
Track quality 100.0 %
Test CRC E2EB5C1C
Copy CRC E2EB5C1C
Track not present in AccurateRip database
Copy OK
Track 2
Filename C:\! UPLOAD\Ballister - Bastard String (2010) [FLAC]\02 - Bastard String.wav
Peak level 100.0 %
Track quality 100.0 %
Test CRC 16542F7B
Copy CRC 16542F7B
Track not present in AccurateRip database
Copy OK
Track 3
Filename C:\! UPLOAD\Ballister - Bastard String (2010) [FLAC]\03 - Cocking Lugs.wav
Peak level 100.0 %
Track quality 100.0 %
Test CRC C9A0AC1A
Copy CRC C9A0AC1A
Track not present in AccurateRip database
Copy OK
None of the tracks are present in the AccurateRip database
No errors occurred
End of status report
 
Содержание индексной карты (.CUE)
REM GENRE Jazz
REM DATE 2010
REM DISCID 1F112A03
REM COMMENT "ExactAudioCopy v0.99pb5"
PERFORMER "Ballister"
TITLE "Bastard String"
FILE "01 - Belt and Claw.wav" WAVE
TRACK 01 AUDIO
TITLE "Belt and Claw"
PERFORMER "Ballister"
INDEX 01 00:00:00
FILE "02 - Bastard String.wav" WAVE
TRACK 02 AUDIO
TITLE "Bastard String"
PERFORMER "Ballister"
INDEX 01 00:00:00
FILE "03 - Cocking Lugs.wav" WAVE
TRACK 03 AUDIO
TITLE "Cocking Lugs"
PERFORMER "Ballister"
INDEX 01 00:00:00
Доп. информация:
Recorded live in concert on June 16th, 2010 at the hideout, Chicago by David Zucho.
Limited to 300 copies!
 
Об альбоме (сборнике)
The album's got an intensity that's much more in the mode you'd expect from Paal than from Fred – very loose, free improvisation – spread out over three long tracks, with some especially nice work from Rempis on tenor, alto, and baritone saxes – all of which he handles with equal dexterity! Lonberg-Holm plays some beautiful bowed cello on one track – setting the scene for the compelling "Cocking Lugs" – and other titles include "Bastard String" and "Belt & Claw".
 
Состав
Dave Rempis - alto/tenor/baritone saxophone
Fred Lonberg-Holm - bass
Paal Nilssen-Love - drums
По всем вопросам пишите личное сообщение пользователю M0p94ok.
10:22
171
Нет комментариев. Ваш будет первым!