Вы используете незарегистрированную версию компонента "Вкладки"!

Поиск

(Free Improvisation) Alterations (Steve Beresford, David Toop, Terry Day, Peter Cusack) - Voila Enough! - 2002 (1979-81), FLAC (tracks) lossless

(Free Improvisation) Alterations (Steve Beresford, David Toop, Terry Day, Peter Cusack) - Voila Enough! - 2002 (1979-81), FLAC (tracks) lossless
Треклист:
Alterations / Voila Enough!
Жанр: Free Improvisation
Страна-производитель диска: США
Год издания диска: 2002
Издатель (лейбл): Atavistic
Номер по каталогу: UMS239CD
Страна: Великобритания
Аудио кодек: FLAC (*.flac)
Тип рипа: tracks
Битрейт аудио: lossless
Продолжительность: 58:34
Источник (релизер): вот.сиди (bukethepuke)
Наличие сканов в содержимом раздачи: нет
Треклист:
1 Berlin 1 3:27
2 Berlin 2 1:53
3 Berlin 3 2:44
4 Berlin 4 4:49
5 Berlin 5 11:10
6 Bracknell 1 10:17
7 Bracknell 2 0:39
8 Bracknell 3 1:26
9 Bracknell 4 2:03
10 Bracknell 5 2:17
11 Tilburg 1 3:08
12 Tilburg 2 1:18
13 Tilburg 3 6:04
14 Tilburg 4 2:54
15 LMC Segue 4:18
Berlin tracks recorded at FMP Workshop Freie Musik, Akademie der Künst, Berlin, 15 March, 1981.
Bracknell tracks recorded 20 January, 1980.
Tilburg tracks recorded 25 January, 1980.
LMC Segue recorded at London Musicians Collective, 27 October, 1979 and 9 March, 1980.
 
Лог создания рипа
Exact Audio Copy V0.99 prebeta 5 from 4. May 2009
EAC extraction logfile from 14. July 2010, 18:28
Alterations / Voila Enough!
Used drive : TSSTcorpDVD+-RW TS-H653A Adapter: 0 ID: 1
Read mode : Secure
Utilize accurate stream : Yes
Defeat audio cache : Yes
Make use of C2 pointers : No
Read offset correction : 6
Overread into Lead-In and Lead-Out : No
Fill up missing offset samples with silence : Yes
Delete leading and trailing silent blocks : No
Null samples used in CRC calculations : Yes
Used interface : Native Win32 interface for Win NT & 2000
Gap handling : Appended to previous track
Used output format : User Defined Encoder
Selected bitrate : 320 kBit/s
Quality : High
Add ID3 tag : No
Command line compressor : C:\Program Files\Exact Audio Copy\Flac\flac.exe
Additional command line options : -V -8 -T "artist=%a" -T "title=%t" -T "album=%g" -T "date=%y" -T "tracknumber=%n" -T "genre=%m" %s
TOC of the extracted CD
Track | Start | Length | Start sector | End sector
---------------------------------------------------------
1 | 0:00.00 | 3:27.24 | 0 | 15548
2 | 3:27.24 | 1:53.07 | 15549 | 24030
3 | 5:20.31 | 2:44.28 | 24031 | 36358
4 | 8:04.59 | 4:49.68 | 36359 | 58101
5 | 12:54.52 | 11:10.38 | 58102 | 108389
6 | 24:05.15 | 10:17.54 | 108390 | 154718
7 | 34:22.69 | 0:39.37 | 154719 | 157680
8 | 35:02.31 | 1:26.13 | 157681 | 164143
9 | 36:28.44 | 2:03.48 | 164144 | 173416
10 | 38:32.17 | 2:17.43 | 173417 | 183734
11 | 40:49.60 | 3:08.49 | 183735 | 197883
12 | 43:58.34 | 1:18.18 | 197884 | 203751
13 | 45:16.52 | 6:04.01 | 203752 | 231052
14 | 51:20.53 | 2:54.69 | 231053 | 244171
15 | 54:15.47 | 4:18.00 | 244172 | 263521
Track 1
Filename F:\Alterations - 2002 - Voila Enough! [FLAC]\01 - Berlin 1.wav
Pre-gap length 0:00:02.00
Peak level 83.9 %
Track quality 100.0 %
Test CRC 682C92AA
Copy CRC 682C92AA
Track not present in AccurateRip database
Copy OK
Track 2
Filename F:\Alterations - 2002 - Voila Enough! [FLAC]\02 - Berlin 2.wav
Pre-gap length 0:00:02.00
Peak level 81.6 %
Track quality 100.0 %
Test CRC 003217A0
Copy CRC 003217A0
Track not present in AccurateRip database
Copy OK
Track 3
Filename F:\Alterations - 2002 - Voila Enough! [FLAC]\03 - Berlin 3.wav
Pre-gap length 0:00:02.00
Peak level 62.6 %
Track quality 99.9 %
Test CRC A7D740FF
Copy CRC A7D740FF
Track not present in AccurateRip database
Copy OK
Track 4
Filename F:\Alterations - 2002 - Voila Enough! [FLAC]\04 - Berlin 4.wav
Pre-gap length 0:00:02.00
Peak level 100.0 %
Track quality 99.9 %
Test CRC 7268FD5D
Copy CRC 7268FD5D
Track not present in AccurateRip database
Copy OK
Track 5
Filename F:\Alterations - 2002 - Voila Enough! [FLAC]\05 - Berlin 5.wav
Pre-gap length 0:00:02.00
Peak level 96.6 %
Track quality 100.0 %
Test CRC 407C481F
Copy CRC 407C481F
Track not present in AccurateRip database
Copy OK
Track 6
Filename F:\Alterations - 2002 - Voila Enough! [FLAC]\06 - Bracknell 1.wav
Pre-gap length 0:00:06.00
Peak level 98.9 %
Track quality 100.0 %
Test CRC 1FE90C53
Copy CRC 1FE90C53
Track not present in AccurateRip database
Copy OK
Track 7
Filename F:\Alterations - 2002 - Voila Enough! [FLAC]\07 - Bracknell 2.wav
Pre-gap length 0:00:02.00
Peak level 65.0 %
Track quality 99.7 %
Test CRC F4A332E5
Copy CRC F4A332E5
Track not present in AccurateRip database
Copy OK
Track 8
Filename F:\Alterations - 2002 - Voila Enough! [FLAC]\08 - Bracknell 3.wav
Pre-gap length 0:00:02.00
Peak level 83.5 %
Track quality 100.0 %
Test CRC FB8453C3
Copy CRC FB8453C3
Track not present in AccurateRip database
Copy OK
Track 9
Filename F:\Alterations - 2002 - Voila Enough! [FLAC]\09 - Bracknell 4.wav
Pre-gap length 0:00:02.00
Peak level 53.2 %
Track quality 100.0 %
Test CRC B0656F19
Copy CRC B0656F19
Track not present in AccurateRip database
Copy OK
Track 10
Filename F:\Alterations - 2002 - Voila Enough! [FLAC]\10 - Bracknell 5.wav
Pre-gap length 0:00:02.00
Peak level 99.9 %
Track quality 100.0 %
Test CRC 17EA04EC
Copy CRC 17EA04EC
Track not present in AccurateRip database
Copy OK
Track 11
Filename F:\Alterations - 2002 - Voila Enough! [FLAC]\11 - Tilburg 1.wav
Pre-gap length 0:00:06.00
Peak level 98.4 %
Track quality 100.0 %
Test CRC BD3B5904
Copy CRC BD3B5904
Track not present in AccurateRip database
Copy OK
Track 12
Filename F:\Alterations - 2002 - Voila Enough! [FLAC]\12 - Tilburg 2.wav
Pre-gap length 0:00:02.00
Peak level 67.5 %
Track quality 100.0 %
Test CRC 5B813CAA
Copy CRC 5B813CAA
Track not present in AccurateRip database
Copy OK
Track 13
Filename F:\Alterations - 2002 - Voila Enough! [FLAC]\13 - Tilburg 3.wav
Pre-gap length 0:00:02.00
Peak level 96.7 %
Track quality 100.0 %
Test CRC 9E9DED3B
Copy CRC 9E9DED3B
Track not present in AccurateRip database
Copy OK
Track 14
Filename F:\Alterations - 2002 - Voila Enough! [FLAC]\14 - Tilburg 4.wav
Pre-gap length 0:00:02.00
Peak level 95.6 %
Track quality 100.0 %
Test CRC 6E099D2B
Copy CRC 6E099D2B
Track not present in AccurateRip database
Copy OK
Track 15
Filename F:\Alterations - 2002 - Voila Enough! [FLAC]\15 - LMC Segue.wav
Pre-gap length 0:00:04.00
Peak level 76.7 %
Track quality 100.0 %
Test CRC 5AAA3638
Copy CRC 5AAA3638
Track not present in AccurateRip database
Copy OK
None of the tracks are present in the AccurateRip database
No errors occurred
End of status report
 
Лог проверки качества
AUDIOCHECKER v2.0 beta (build 457) - by Dester - opdester@freemail.hu
~~~~~~~~~~~~~~~~~~~~~~~~~~~~~~~~~~
-=== DO NOT EDIT THIS FILE! ===-
Path: ...\voila enough! 2002
01 -=- 01 - Berlin 1.flac -=- CDDA (100%)
02 -=- 02 - Berlin 2.flac -=- CDDA (100%)
03 -=- 03 - Berlin 3.flac -=- CDDA (100%)
04 -=- 04 - Berlin 4.flac -=- CDDA (100%)
05 -=- 05 - Berlin 5.flac -=- CDDA (99%)
06 -=- 06 - Bracknell 1.flac -=- CDDA (100%)
07 -=- 07 - Bracknell 2.flac -=- CDDA (100%)
08 -=- 08 - Bracknell 3.flac -=- CDDA (100%)
09 -=- 09 - Bracknell 4.flac -=- CDDA (49%)
10 -=- 10 - Bracknell 5.flac -=- CDDA (100%)
11 -=- 11 - Tilburg 1.flac -=- CDDA (100%)
12 -=- 12 - Tilburg 2.flac -=- CDDA (100%)
13 -=- 13 - Tilburg 3.flac -=- CDDA (100%)
14 -=- 14 - Tilburg 4.flac -=- CDDA (100%)
15 -=- 15 - LMC Segue.flac -=- CDDA (100%)
Summary 96,53% CDDA
130011508
 
Состав
David Toop bass guitar, electric guitar, faulty guitar pedal, african fiidle, flute, bamboo flute, plastic flute, animal horn, game calls, football rattle, dog whistle
Steve Beresford bass guitar, euphonium, toy electric guitar, toy electric keyboards, chicken box, automatic toy organ, music box, siren, toy drumming monkey, whirling instruments, piano, toy piano, football rattle, toy record player
Peter Cusack clarinet, electric guitar, spanish guitar, feedback
Terry Day drums, toy harmonica, mandolin, maracas, percussion, balloons, bamboo pipe, toy instruments, piano, alto saxophone, pocket synthesizer, reed in cup, pocket trumpet, voice
По всем вопросам пишите личное сообщение пользователю M0p94ok.
10:23
178
Нет комментариев. Ваш будет первым!