Поиск

(Free Jazz, Latin Jazz) Don Pullen & The African Brazilian Connection - Live...Again - 1995, FLAC (tracks), lossless

(Free Jazz, Latin Jazz) Don Pullen & The African Brazilian Connection - Live...Again - 1995, FLAC (tracks), lossless
Треклист:
Don Pullen & The African Brazilian Connection - Live...Again
live at the Montreux Jazz Festival in Montreux, Switzerland on July 13, 1993
Страна: USA
Жанр: Free Jazz, Latin Jazz
Год выпуска: 1995
Формат: FLAC (tracks)
Битрейт аудио: lossless
Продолжительность: 73:12
Label: BLUЕ NOTE CDP 7243 8 30271 2 5
Source: Render's collection
Included: FLACS, LOG, CUE, TAU, Info - 492 mb
Covers: Full Artworks provided. Scanned at 300dpi, png.
Ripped by: Musicgate (Dyani)
Трэклист:
1 Yebino Spring (16:35) (Yebga Likoba)
2 Ah George, We Hardly Knew Ya (18:21) (Don Pullen)
3 Capoeira (13:17) (Giulherme Franco)
4 Kele Mou Bana (14:23) (Моr Thiam)
5 Aseeko! (Get Up And Dance!) (10:33) (Моr Thiam)
Доп. информация:
Personel info:
Don Pullen - piano
Carlos Ward - atto saxophone
Nilson Matta - bass
J. T. Lewis - drums
Мor Thiam - djembe, tabula, rainstick, wind chimes, vocal (on #4)
 
Folder content
01 - Yebino Spring.flac
02 - Ah George, We Hardly Knew Ya.flac
03 - Capoeira.flac
04 - Kele Mou Bana.flac
05 - Aseeko! (Get Up And Dance!).flac
Artwork
Don Pullen & The African Brazilian Connection - Live...Again.m3u
front.jpg
info.txt
Live...Again.log
Live...Again_Noncompliant.CUE
Live...Again_Single Wav.CUE
tau.txt
thumb.jpg
Artwork\Back.png
Artwork\Booklet 1.png
Artwork\Booklet 2.png
Artwork\Booklet 3.png
Artwork\Booklet 4.png
Artwork\Disc.png
 
EAC log
EAC extraction logfile from 30. April 2008, 8:42 for CD
Don Pullen & The African Brazilian Connection / Live...Again
Used drive : PIONEER DVD-RW DVR-112D Adapter: 0 ID: 0
Read mode : Secure with NO C2, accurate stream, disable cache
Read offset correction : 48
Overread into Lead-In and Lead-Out : No
Used output format : C:\Program Files\FLAC\flac.exe (User Defined Encoder)
320 kBit/s
Additional command line options : -8 -V -T "ARTIST=%a" -T "TITLE=%t" -T "ALBUM=%g" -T "DATE=%y" -T "TRACKNUMBER=%n" -T "GENRE=%m" -T "COMMENT=EAC FLAC -8" %s
Other options :
Fill up missing offset samples with silence : Yes
Delete leading and trailing silent blocks : No
Installed external ASPI interface
Track 1
Filename D:\music\rip\Don Pullen & The African Brazilian Connection - Live...Again (1995) [FLAC] {Blue Note}\01 - Yebino Spring.wav
Pre-gap length 0:00:02.00
Peak level 96.4 %
Track quality 100.0 %
Test CRC 79250B4C
Copy CRC 79250B4C
Copy OK
Track 2
Filename D:\music\rip\Don Pullen & The African Brazilian Connection - Live...Again (1995) [FLAC] {Blue Note}\02 - Ah George, We Hardly Knew Ya.wav
Pre-gap length 0:00:00.26
Peak level 93.1 %
Track quality 99.9 %
Test CRC 6051EDD4
Copy CRC 6051EDD4
Copy OK
Track 3
Filename D:\music\rip\Don Pullen & The African Brazilian Connection - Live...Again (1995) [FLAC] {Blue Note}\03 - Capoeira.wav
Pre-gap length 0:00:00.16
Peak level 98.7 %
Track quality 100.0 %
Test CRC 0B2BF5D7
Copy CRC 0B2BF5D7
Copy OK
Track 4
Filename D:\music\rip\Don Pullen & The African Brazilian Connection - Live...Again (1995) [FLAC] {Blue Note}\04 - Kele Mou Bana.wav
Peak level 93.7 %
Track quality 100.0 %
Test CRC C1E58BC3
Copy CRC C1E58BC3
Copy OK
Track 5
Filename D:\music\rip\Don Pullen & The African Brazilian Connection - Live...Again (1995) [FLAC] {Blue Note}\05 - Aseeko! (Get Up And Dance!).wav
Pre-gap length 0:00:00.20
Peak level 97.5 %
Track quality 100.0 %
Test CRC 04794240
Copy CRC 04794240
Copy OK
No errors occured
End of status report
 
TAU log
2645354676 175812044 01 - Yebino Spring.wav
1107157713 194350508 02 - Ah George, We Hardly Knew Ya.wav
3246934914 140739020 03 - Capoeira.wav
1950518425 152332028 04 - Kele Mou Bana.wav
1180335100 111661244 05 - Aseeko! (Get Up And Dance!).wav
auCDtect: CD records authenticity detector, version 0.8.2
Copyright (c) 2004 Oleg Berngardt. All rights reserved.
Copyright (c) 2004 Alexander Djourik. All rights reserved.
------------------------------------------------------------
Processing file: [01 - Yebino Spring.wav]
------------------------------------------------------------
This track looks like CDDA with probability 100%
------------------------------------------------------------
Processing file: [02 - Ah George, We Hardly Knew Ya.wav]
------------------------------------------------------------
This track looks like CDDA with probability 100%
------------------------------------------------------------
Processing file: [03 - Capoeira.wav]
------------------------------------------------------------
This track looks like CDDA with probability 100%
------------------------------------------------------------
Processing file: [04 - Kele Mou Bana.wav]
------------------------------------------------------------
This track looks like CDDA with probability 100%
------------------------------------------------------------
Processing file: [05 - Aseeko! (Get Up And Dance!).wav]
------------------------------------------------------------
This track looks like CDDA with probability 100%
------------------------------------------------------------
Final Conclusion:
------------------------------------------------------------
These tracks looks like CDDA with probability 100%
Приватный:
Нет (DHT включён)
Размер:
470.05 Мб (492,886,259 байт) » файлов: 19
Участники:
0 раздают, 0 качают (0 участников всего)
Внешние участники:
1 раздают, 0 качают (1 участников всего) [ Обновить ]
No seeders - write a personal message to user M0p94ok. Нет сидеров - пишите личное сообщение пользователю M0p94ok.
00:56
75
Нет комментариев. Ваш будет первым!