Поиск

(free-jazz) Albert Ayler Trio - Spiritual Unity - 1964, FLAC (image + .cue), lossless

Треклист:
Albert Ayler Trio - Spiritual Unity
Страна: USA
Жанр: free-jazz
Год выпуска: 1964
Формат: FLAC (image + .cue)
Битрейт аудио: lossless
Продолжительность: 29:32
Трэклист:
1. Ghosts : First Variation (5:14)
2. The Wizard (7:23)
3. Spirits (6:48)
4. Ghosts : Second Variation (10:02)
Доп. информация: Albert Ayler - saxophone
Gary Peacock - bass
Sonny Murray - drums
Дебютная пластинка Айлера на легендарном лейбле ESP. Основа основ свободной импровизации. Классика на все времена.
 
Отчет EAC
Exact Audio Copy V0.99 prebeta 4 from 23. January 2008
Отчёт EAC об извлечении, выполненном 4. мая 2008, 21:42
Albert Ayler Trio / Spiritual Unity
Дисковод: Optiarc DVD RW AD-7170A Adapter: 0 ID: 1
Режим чтения : Достоверность
Использование точного потока : Да
Отключение кэша аудио : Да
Использование указателей C2 : Нет
Комбинированное смещение чтения/записи : 0
Способность читать области Lead-in и Lead-out : Нет
Заполнение пропущенных сэмплов тишиной : Да
Удаление блоков с тишиной в начале и конце : Нет
При вычислениях CRC использовались нулевые сэмплы : Нет
Интерфейс : Встроенный Win32-интерфейс для Win NT/2000
Выходной формат : Пользовательский кодировщик
Выбранный битрейт : 768 kBit/s
Качество : Высокий
Добавление ID3-тэга : Нет
Утилита сжатия : C:\Program Files\Exact Audio Copy\FLAC\FLAC.EXE
Дополнительные параметры : -6 -V -T "ARTIST=%a" -T "TITLE=%t" -T "ALBUM=%g" -T "DATE=%y" -T "TRACKNUMBER=%n" -T "GENRE=%m" -T "COMMENT=%e" %s -o %d
TOC извлечённого CD
Трек | Старт | Длительность | Начальный сектор | Конечный сектор
---------------------------------------------------------------------
1 | 0:00.00 | 5:16.28 | 0 | 23727
2 | 5:16.28 | 7:24.39 | 23728 | 57066
3 | 12:40.67 | 6:50.14 | 57067 | 87830
4 | 19:31.06 | 10:01.53 | 87831 | 132958
Характеристики диапазона извлечения и сообщения об ошибках
Выбранный диапазон
Имя файла C:\Music\Albert Ayler Trio - Spiritual Unity.wav
Пиковый уровень 97.7 %
Качество диапазона 99.9 %
CRC копии C94FBD8E
Копирование... OK
Ошибок не произошло
Конец отчёта
Приватный:
Нет (DHT включён)
Размер:
205.59 Мб (215,579,161 байт) » файлов: 3
Участники:
0 раздают, 0 качают (0 участников всего)
Внешние участники:
2 раздают, 1 качают (3 участников всего) [ Обновить ]
Есть вопросы - пишите личное сообщение пользователю M0p94ok.
00:56
61
Нет комментариев. Ваш будет первым!