Поиск

(modern improvisation) Peter Kowald - Global Village (feat. Otomo Yoshihide) - 2001, FLAC (image + .cue), lossless

(modern improvisation) Peter Kowald - Global Village (feat. Otomo Yoshihide) - 2001, FLAC (image + .cue), lossless
Треклист:
Peter Kowald - Global Village (feat. Otomo Yoshihide)
Страна: Multiple
Жанр: modern improvisation
Год выпуска: 2001
Формат: FLAC (image + .cue)
Битрейт аудио: lossless
Продолжительность: 64:09
Трэклист:
1. Global village trio Movement I (02.19)
2. Global village trio Movement II (02.25)
3. Global village trio Movement IiI (02.22)
4. Trio + Otomo Yoshihide Movement I (05.50)
5. Trio + Otomo Yoshihide Movement II (02.44)
6. Trio + Otomo Yoshihide Movement IiI (06.14)
7. Global village trio Movement I (02.38)
8. Global village trio Movement II (03.01)
9. Global village trio Movement IiI (03.16)
10. Trio + Jin Hi Kim Movement I (05.02)
11. Trio + Jin Hi Kim Movement II (02.52)
12. Trio + Jin Hi Kim Movement IiI (03.28)
13. Global village trio Movement I (02.25)
14. Global village trio Movement II (02.21)
15. Global village trio Movement IiI (01.59)
16. Trio + Pamela Z Movement I (04.49)
17. Trio + Pamela Z Movement II (04.48)
18. Trio + Pamela Z Movement IiI (05.34)
Доп. информация: Peter Kowald, double bass;
Gunda Gottschalk, violin, viola;
Xu Feng Xia, guzheng;
Otomo Yoshihide, electronics (tracks 4-6);
Jin Hi Kim, komungo, (tracks 10-12);
Pamela Z, voice, electronics (tracks 16-18).
Странная, очень необычная, сложная, но немыслимо красивая свободная импровизация. Очень рекомендую любителям предоставлять своему музыкальному восприятию необычные экспириенсы. Одна из самых загадочных пластинок, которые я когда-либо слышал.
 
Отчет EAC
Exact Audio Copy V0.99 prebeta 4 from 23. January 2008
Отчёт EAC об извлечении, выполненном 6. мая 2008, 20:09
Peter Kowald / Global Village
Дисковод: Optiarc DVD RW AD-7170A Adapter: 0 ID: 1
Режим чтения : Достоверность
Использование точного потока : Да
Отключение кэша аудио : Да
Использование указателей C2 : Нет
Коррекция смещения при чтении : 48
Способность читать области Lead-in и Lead-out : Нет
Заполнение пропущенных сэмплов тишиной : Да
Удаление блоков с тишиной в начале и конце : Нет
При вычислениях CRC использовались нулевые сэмплы : Нет
Интерфейс : Встроенный Win32-интерфейс для Win NT/2000
Выходной формат : Пользовательский кодировщик
Выбранный битрейт : 768 kBit/s
Качество : Высокий
Добавление ID3-тэга : Нет
Утилита сжатия : C:\Program Files\Exact Audio Copy\FLAC\FLAC.EXE
Дополнительные параметры : -6 -V -T "ARTIST=%a" -T "TITLE=%t" -T "ALBUM=%g" -T "DATE=%y" -T "TRACKNUMBER=%n" -T "GENRE=%m" -T "COMMENT=%e" %s -o %d
TOC извлечённого CD
Трек | Старт | Длительность | Начальный сектор | Конечный сектор
---------------------------------------------------------------------
1 | 0:00.00 | 2:18.56 | 0 | 10405
2 | 2:18.56 | 2:24.53 | 10406 | 21258
3 | 4:43.34 | 2:23.36 | 21259 | 32019
4 | 7:06.70 | 5:50.50 | 32020 | 58319
5 | 12:57.45 | 2:44.24 | 58320 | 70643
6 | 15:41.69 | 6:13.12 | 70644 | 98630
7 | 21:55.06 | 2:38.12 | 98631 | 110492
8 | 24:33.18 | 3:01.20 | 110493 | 124087
9 | 27:34.38 | 3:15.70 | 124088 | 138782
10 | 30:50.33 | 5:01.30 | 138783 | 161387
11 | 35:51.63 | 2:52.25 | 161388 | 174312
12 | 38:44.13 | 3:27.54 | 174313 | 189891
13 | 42:11.67 | 2:24.59 | 189892 | 200750
14 | 44:36.51 | 2:21.60 | 200751 | 211385
15 | 46:58.36 | 1:58.60 | 211386 | 220295
16 | 48:57.21 | 4:49.33 | 220296 | 242003
17 | 53:46.54 | 4:47.60 | 242004 | 263588
18 | 58:34.39 | 5:34.16 | 263589 | 288654
Характеристики диапазона извлечения и сообщения об ошибках
Выбранный диапазон
Имя файла C:\Music\Peter Kowald - Global Village.wav
Пиковый уровень 100.0 %
Качество диапазона 99.9 %
CRC копии 06C5DD12
Копирование... OK
Ошибок не произошло
AccurateRip: сводка
Трек 1 нет в базе данных
Трек 2 нет в базе данных
Трек 3 нет в базе данных
Трек 4 нет в базе данных
Трек 5 нет в базе данных
Трек 6 нет в базе данных
Трек 7 нет в базе данных
Трек 8 нет в базе данных
Трек 9 нет в базе данных
Трек 10 нет в базе данных
Трек 11 нет в базе данных
Трек 12 нет в базе данных
Трек 13 нет в базе данных
Трек 14 нет в базе данных
Трек 15 нет в базе данных
Трек 16 нет в базе данных
Трек 17 нет в базе данных
Трек 18 нет в базе данных
Ни одного трека нет в базе AccurateRip
Конец отчёта
Приватный:
Нет (DHT включён)
Размер:
255.20 Мб (267,598,960 байт) » файлов: 3
Участники:
0 раздают, 0 качают (0 участников всего)
Внешние участники:
1 раздают, 0 качают (1 участников всего) [ Обновить ]
Есть вопросы - пишите личное сообщение пользователю M0p94ok.
00:57
45
Нет комментариев. Ваш будет первым!