Вы используете незарегистрированную версию компонента "Вкладки"!

Поиск

(free jazz) Jorge Lima Barreto - Zul Zelub 2008, FLAC (tracks+.cue), lossless

Треклист:


Jorge Lima Barreto - Zul Zelub 2008

Жанр: free jazz
Год выпуска: 2008
Издатель (лейбл):Clean Feed / CF111CD
Формат: FLAC (tracks+.cue)
Битрейт аудио: lossless
Продолжительность 1`15`23
Источник: what.cd, 6060842
Piano – Jorge Lima Barreto

tracks

1 Zul #1 8:42
2 Zul #2 11:05
3 Zul #3 8:51
4 Zul #4 6:06
5 Zul #5 10:28
6 Zelub #1 8:01
7 Zelub #2 6:01
8 Zelub #3 9:13
9 Zelub #4 6:54


 
.log
X Lossless Decoder version 20130407 (143.0)
XLD extraction logfile from 2013-05-05 23:25:54 +0400
Jorge Lima Barreto / Zul Zelub
Used drive : HL-DT-ST DVDRW GX30N (revision RP09)
Media type : Pressed CD
Ripper mode : XLD Secure Ripper
Disable audio cache : OK for the drive with a cache less than 1375KiB
Make use of C2 pointers : NO
Read offset correction : 6
Max retry count : 20
Gap status : Analyzed, Appended
TOC of the extracted CD
Track | Start | Length | Start sector | End sector
---------------------------------------------------------
1 | 00:00:00 | 08:42:55 | 0 | 39204
2 | 08:42:55 | 11:05:19 | 39205 | 89098
3 | 19:47:74 | 08:50:74 | 89099 | 128922
4 | 28:38:73 | 06:05:74 | 128923 | 156371
5 | 34:44:72 | 10:28:01 | 156372 | 203472
6 | 45:12:73 | 08:01:14 | 203473 | 239561
7 | 53:14:12 | 06:01:15 | 239562 | 266651
8 | 59:15:27 | 09:13:16 | 266652 | 308142
9 | 68:28:43 | 06:54:27 | 308143 | 339219
AccurateRip Summary
Disc not found in AccurateRip DB.
All Tracks
Album gain : -2.78 dB
Peak : 0.988708
Statistics
Read error : 0
Jitter error (maybe fixed) : 0
Retry sector count : 0
Damaged sector count : 0
Track 01
Filename : /Users/anch/Music/FLAC/Jorge Lima Barreto - 2008 - Zul Zelub [FLAC]/01 - Zul #1.flac
/Users/anch/Music/FLAC/Jorge Lima Barreto - 2008 - Zul Zelub [MP3 320]/01 - Zul #1.mp3
/Users/anch/Music/FLAC/Jorge Lima Barreto - 2008 - Zul Zelub [MP3 V0]/01 - Zul #1.mp3
Pre-gap length : 00:02:00
Track gain : -4.78 dB
Peak : 0.988708
CRC32 hash (test run) : 88CC3987
CRC32 hash : 88CC3987
CRC32 hash (skip zero) : FB5FC0FA
AccurateRip v1 signature : 92541F1F
AccurateRip v2 signature : BC7F07DF
->Track not present in AccurateRip database.
Statistics
Read error : 0
Jitter error (maybe fixed) : 0
Retry sector count : 0
Damaged sector count : 0
Track 02
Filename : /Users/anch/Music/FLAC/Jorge Lima Barreto - 2008 - Zul Zelub [FLAC]/02 - Zul #2.flac
/Users/anch/Music/FLAC/Jorge Lima Barreto - 2008 - Zul Zelub [MP3 320]/02 - Zul #2.mp3
/Users/anch/Music/FLAC/Jorge Lima Barreto - 2008 - Zul Zelub [MP3 V0]/02 - Zul #2.mp3
Track gain : -0.93 dB
Peak : 0.881165
CRC32 hash (test run) : 2B656BD8
CRC32 hash : 2B656BD8
CRC32 hash (skip zero) : 6C7D6D72
AccurateRip v1 signature : 1EE4F966
AccurateRip v2 signature : 15517814
->Track not present in AccurateRip database.
Statistics
Read error : 0
Jitter error (maybe fixed) : 0
Retry sector count : 0
Damaged sector count : 0
Track 03
Filename : /Users/anch/Music/FLAC/Jorge Lima Barreto - 2008 - Zul Zelub [FLAC]/03 - Zul #3.flac
/Users/anch/Music/FLAC/Jorge Lima Barreto - 2008 - Zul Zelub [MP3 320]/03 - Zul #3.mp3
/Users/anch/Music/FLAC/Jorge Lima Barreto - 2008 - Zul Zelub [MP3 V0]/03 - Zul #3.mp3
Track gain : 0.96 dB
Peak : 0.846863
CRC32 hash (test run) : 5945655F
CRC32 hash : 5945655F
CRC32 hash (skip zero) : 9EA7551F
AccurateRip v1 signature : 0F4577FB
AccurateRip v2 signature : 65F7F615
->Track not present in AccurateRip database.
Statistics
Read error : 0
Jitter error (maybe fixed) : 0
Retry sector count : 0
Damaged sector count : 0
Track 04
Filename : /Users/anch/Music/FLAC/Jorge Lima Barreto - 2008 - Zul Zelub [FLAC]/04 - Zul #4.flac
/Users/anch/Music/FLAC/Jorge Lima Barreto - 2008 - Zul Zelub [MP3 320]/04 - Zul #4.mp3
/Users/anch/Music/FLAC/Jorge Lima Barreto - 2008 - Zul Zelub [MP3 V0]/04 - Zul #4.mp3
Track gain : -6.05 dB
Peak : 0.988678
CRC32 hash (test run) : 75B52D03
CRC32 hash : 75B52D03
CRC32 hash (skip zero) : 19375E75
AccurateRip v1 signature : B98EE90B
AccurateRip v2 signature : 52E80AFC
->Track not present in AccurateRip database.
Statistics
Read error : 0
Jitter error (maybe fixed) : 0
Retry sector count : 0
Damaged sector count : 0
Track 05
Filename : /Users/anch/Music/FLAC/Jorge Lima Barreto - 2008 - Zul Zelub [FLAC]/05 - Zul #5.flac
/Users/anch/Music/FLAC/Jorge Lima Barreto - 2008 - Zul Zelub [MP3 320]/05 - Zul #5.mp3
/Users/anch/Music/FLAC/Jorge Lima Barreto - 2008 - Zul Zelub [MP3 V0]/05 - Zul #5.mp3
Track gain : 1.06 dB
Peak : 0.988647
CRC32 hash (test run) : 711A96BA
CRC32 hash : 711A96BA
CRC32 hash (skip zero) : C2494E6C
AccurateRip v1 signature : 818D69BE
AccurateRip v2 signature : 876153B9
->Track not present in AccurateRip database.
Statistics
Read error : 0
Jitter error (maybe fixed) : 0
Retry sector count : 0
Damaged sector count : 0
Track 06
Filename : /Users/anch/Music/FLAC/Jorge Lima Barreto - 2008 - Zul Zelub [FLAC]/06 - Zelub #1.flac
/Users/anch/Music/FLAC/Jorge Lima Barreto - 2008 - Zul Zelub [MP3 320]/06 - Zelub #1.mp3
/Users/anch/Music/FLAC/Jorge Lima Barreto - 2008 - Zul Zelub [MP3 V0]/06 - Zelub #1.mp3
Track gain : 1.16 dB
Peak : 0.872284
CRC32 hash (test run) : 5C3C35D0
CRC32 hash : 5C3C35D0
CRC32 hash (skip zero) : 5FDC72F1
AccurateRip v1 signature : 1D78E9DA
AccurateRip v2 signature : 73C03341
->Track not present in AccurateRip database.
Statistics
Read error : 0
Jitter error (maybe fixed) : 0
Retry sector count : 0
Damaged sector count : 0
Track 07
Filename : /Users/anch/Music/FLAC/Jorge Lima Barreto - 2008 - Zul Zelub [FLAC]/07 - Zelub #2.flac
/Users/anch/Music/FLAC/Jorge Lima Barreto - 2008 - Zul Zelub [MP3 320]/07 - Zelub #2.mp3
/Users/anch/Music/FLAC/Jorge Lima Barreto - 2008 - Zul Zelub [MP3 V0]/07 - Zelub #2.mp3
Track gain : -3.31 dB
Peak : 0.988495
CRC32 hash (test run) : 272F9CFC
CRC32 hash : 272F9CFC
CRC32 hash (skip zero) : 8454CA4C
AccurateRip v1 signature : 9A3DC4BD
AccurateRip v2 signature : 2206021A
->Track not present in AccurateRip database.
Statistics
Read error : 0
Jitter error (maybe fixed) : 0
Retry sector count : 0
Damaged sector count : 0
Track 08
Filename : /Users/anch/Music/FLAC/Jorge Lima Barreto - 2008 - Zul Zelub [FLAC]/08 - Zelub #3.flac
/Users/anch/Music/FLAC/Jorge Lima Barreto - 2008 - Zul Zelub [MP3 320]/08 - Zelub #3.mp3
/Users/anch/Music/FLAC/Jorge Lima Barreto - 2008 - Zul Zelub [MP3 V0]/08 - Zelub #3.mp3
Track gain : -1.59 dB
Peak : 0.934631
CRC32 hash (test run) : 9941C7DB
CRC32 hash : 9941C7DB
CRC32 hash (skip zero) : 6E753485
AccurateRip v1 signature : CF49C848
AccurateRip v2 signature : 7F9BCF79
->Track not present in AccurateRip database.
Statistics
Read error : 0
Jitter error (maybe fixed) : 0
Retry sector count : 0
Damaged sector count : 0
Track 09
Filename : /Users/anch/Music/FLAC/Jorge Lima Barreto - 2008 - Zul Zelub [FLAC]/09 - Zelub #4.flac
/Users/anch/Music/FLAC/Jorge Lima Barreto - 2008 - Zul Zelub [MP3 320]/09 - Zelub #4.mp3
/Users/anch/Music/FLAC/Jorge Lima Barreto - 2008 - Zul Zelub [MP3 V0]/09 - Zelub #4.mp3
Track gain : -3.94 dB
Peak : 0.988525
CRC32 hash (test run) : B09B470B
CRC32 hash : B09B470B
CRC32 hash (skip zero) : FDB0DB6E
AccurateRip v1 signature : CC105313
AccurateRip v2 signature : A9D87A0C
->Track not present in AccurateRip database.
Statistics
Read error : 0
Jitter error (maybe fixed) : 0
Retry sector count : 0
Damaged sector count : 0
No errors occurred
End of status report
 
.cue
TITLE "Zul Zelub"
PERFORMER "Jorge Lima Barreto"
REM GENRE "Jazz"
REM DATE "2008"
REM DISCID 7511AA09
REM REPLAYGAIN_ALBUM_GAIN -2.78 dB
REM REPLAYGAIN_ALBUM_PEAK 0.988708
FILE "01 - Zul #1.flac" WAVE
TRACK 01 AUDIO
TITLE "Zul #1"
PERFORMER "Jorge Lima Barreto"
REM REPLAYGAIN_TRACK_GAIN -4.78 dB
REM REPLAYGAIN_TRACK_PEAK 0.988708
INDEX 01 00:00:00
FILE "02 - Zul #2.flac" WAVE
TRACK 02 AUDIO
TITLE "Zul #2"
PERFORMER "Jorge Lima Barreto"
REM REPLAYGAIN_TRACK_GAIN -0.93 dB
REM REPLAYGAIN_TRACK_PEAK 0.881165
INDEX 01 00:00:00
FILE "03 - Zul #3.flac" WAVE
TRACK 03 AUDIO
TITLE "Zul #3"
PERFORMER "Jorge Lima Barreto"
REM REPLAYGAIN_TRACK_GAIN 0.96 dB
REM REPLAYGAIN_TRACK_PEAK 0.846863
INDEX 01 00:00:00
FILE "04 - Zul #4.flac" WAVE
TRACK 04 AUDIO
TITLE "Zul #4"
PERFORMER "Jorge Lima Barreto"
REM REPLAYGAIN_TRACK_GAIN -6.05 dB
REM REPLAYGAIN_TRACK_PEAK 0.988678
INDEX 01 00:00:00
FILE "05 - Zul #5.flac" WAVE
TRACK 05 AUDIO
TITLE "Zul #5"
PERFORMER "Jorge Lima Barreto"
REM REPLAYGAIN_TRACK_GAIN 1.06 dB
REM REPLAYGAIN_TRACK_PEAK 0.988647
INDEX 01 00:00:00
FILE "06 - Zelub #1.flac" WAVE
TRACK 06 AUDIO
TITLE "Zelub #1"
PERFORMER "Jorge Lima Barreto"
REM REPLAYGAIN_TRACK_GAIN 1.16 dB
REM REPLAYGAIN_TRACK_PEAK 0.872284
INDEX 01 00:00:00
FILE "07 - Zelub #2.flac" WAVE
TRACK 07 AUDIO
TITLE "Zelub #2"
PERFORMER "Jorge Lima Barreto"
REM REPLAYGAIN_TRACK_GAIN -3.31 dB
REM REPLAYGAIN_TRACK_PEAK 0.988495
INDEX 01 00:00:00
FILE "08 - Zelub #3.flac" WAVE
TRACK 08 AUDIO
TITLE "Zelub #3"
PERFORMER "Jorge Lima Barreto"
REM REPLAYGAIN_TRACK_GAIN -1.59 dB
REM REPLAYGAIN_TRACK_PEAK 0.934631
INDEX 01 00:00:00
FILE "09 - Zelub #4.flac" WAVE
TRACK 09 AUDIO
TITLE "Zelub #4"
PERFORMER "Jorge Lima Barreto"
REM REPLAYGAIN_TRACK_GAIN -3.94 dB
REM REPLAYGAIN_TRACK_PEAK 0.988525
INDEX 01 00:00:00

другие релизы
Any questions -> support@pro-jazz.com. По всем вопросам пишите -> support@pro-jazz.com
12:52
134
Нет комментариев. Ваш будет первым!