Вы используете незарегистрированную версию компонента "Вкладки"!

Поиск

(Free Jazz, Free Improvisation, Between the Lines) Michael Moore with Tristan Honsinger and Cor Fuhler - Monitor - 1999, FLAC (tracks+.cue), lossless

(Free Jazz, Free Improvisation, Between the Lines) Michael Moore with Tristan Honsinger and Cor Fuhler - Monitor - 1999, FLAC (tracks+.cue), lossless
Треклист:
Michael Moore with Tristan Honsinger and Cor Fuhler / Monitor
Жанр: Free Jazz, Free Improvisation, Between the Lines
Страна-производитель диска: Germany
Год издания: 1999
Издатель (лейбл): Between the Lines
Номер по каталогу: btl 003 / EFA 10173-2
Аудиокодек: FLAC (*.flac)
Тип рипа: tracks+.cue
Битрейт аудио: lossless
Продолжительность: 58:45
Источник (релизер): Max Monteiro
Наличие сканов в содержимом раздачи: нет
Треклист:
01. Riddled (Michael Moore) 5:25
02. Budnike (Michael Moore) 3:37
03. Five Bits (Michael Moore) 6:36
04. Misericordia (Michael Moore / Cor Fuhler) 2:37
05. Gulls 4:07
06. Race in Space for Face (Tristan Honsinger) 4:07
07. Focus 5:47
08. Bounding 4:13
09. Desinterresse en Deviatie, opnieuw en opnieuw (Cor Fuhler) 5:06
10. Monitor (Michael Moore / Cor Fuhler / Tristan Honsinger) 14:56
11. Barium 2:14
 
Лог создания рипа
Exact Audio Copy V1.0 beta 3 from 29. August 2011
EAC extraction logfile from 6. May 2013, 19:11
Michael Moore with Tristan Honsinger and Cor Fuhler / Monitor
Used drive : SlimtypeeNAU508 5 Adapter: 1 ID: 0
Read mode : Secure
Utilize accurate stream : Yes
Defeat audio cache : Yes
Make use of C2 pointers : No
Read offset correction : 6
Overread into Lead-In and Lead-Out : No
Fill up missing offset samples with silence : Yes
Delete leading and trailing silent blocks : No
Null samples used in CRC calculations : Yes
Used interface : Native Win32 interface for Win NT & 2000
Gap handling : Appended to previous track
Used output format : User Defined Encoder
Selected bitrate : 768 kBit/s
Quality : High
Add ID3 tag : No
Command line compressor : C:\Program Files (x86)\Exact Audio Copy\Flac\flac.exe
Additional command line options : -8 -V -T "ARTIST=%artist%" -T "TITLE=%title%" -T "ALBUM=%albumtitle%" -T "DATE=%year%" -T "TRACKNUMBER=%tracknr%" -T "GENRE=%genre%" -T "PERFORMER=%albuminterpret%" -T "COMPOSER=%composer%" %haslyrics%--tag-from-file=LYRICS="%lyricsfile%"%haslyrics% -T "ALBUMARTIST=%albumartist%" -T "DISCNUMBER=%cdnumber%" -T "TOTALDISCS=%totalcds%" -T "TOTALTRACKS=%numtracks%" -T "COMMENT=%comment%" %source% -o %dest%
TOC of the extracted CD
Track | Start | Length | Start sector | End sector
---------------------------------------------------------
1 | 0:00.00 | 5:24.40 | 0 | 24339
2 | 5:24.40 | 3:37.17 | 24340 | 40631
3 | 9:01.57 | 6:36.23 | 40632 | 70354
4 | 15:38.05 | 2:36.60 | 70355 | 82114
5 | 18:14.65 | 4:06.45 | 82115 | 100609
6 | 22:21.35 | 4:06.70 | 100610 | 119129
7 | 26:28.30 | 5:47.00 | 119130 | 145154
8 | 32:15.30 | 4:13.35 | 145155 | 164164
9 | 36:28.65 | 5:05.44 | 164165 | 187083
10 | 41:34.34 | 14:56.16 | 187084 | 254299
11 | 56:30.50 | 2:14.32 | 254300 | 264381
Track 1
Filename C:\EAC rips\01 - Riddled.wav
Pre-gap length 0:00:02.00
Peak level 96.3 %
Extraction speed 1.1 X
Track quality 100.0 %
Test CRC 48DFD1D0
Copy CRC 48DFD1D0
Track not present in AccurateRip database
Copy OK
Track 2
Filename C:\EAC rips\02 - Budnike.wav
Pre-gap length 0:00:07.00
Peak level 69.3 %
Extraction speed 1.2 X
Track quality 100.0 %
Test CRC 83DCF33E
Copy CRC 83DCF33E
Track not present in AccurateRip database
Copy OK
Track 3
Filename C:\EAC rips\03 - Five Bits.wav
Pre-gap length 0:00:04.07
Peak level 98.5 %
Extraction speed 1.4 X
Track quality 100.0 %
Test CRC 20F2F57D
Copy CRC 20F2F57D
Track not present in AccurateRip database
Copy OK
Track 4
Filename C:\EAC rips\04 - Misericordia.wav
Pre-gap length 0:00:05.53
Peak level 63.7 %
Extraction speed 1.3 X
Track quality 100.0 %
Test CRC E29C4FD6
Copy CRC E29C4FD6
Track not present in AccurateRip database
Copy OK
Track 5
Filename C:\EAC rips\05 - Gulls.wav
Pre-gap length 0:00:05.40
Peak level 98.0 %
Extraction speed 1.5 X
Track quality 100.0 %
Test CRC 640F1E7E
Copy CRC 640F1E7E
Track not present in AccurateRip database
Copy OK
Track 6
Filename C:\EAC rips\06 - Race in Space for Face.wav
Pre-gap length 0:00:02.53
Peak level 98.5 %
Extraction speed 1.6 X
Track quality 100.0 %
Test CRC AE48641B
Copy CRC AE48641B
Track not present in AccurateRip database
Copy OK
Track 7
Filename C:\EAC rips\07 - Focus.wav
Pre-gap length 0:00:03.20
Peak level 96.0 %
Extraction speed 1.8 X
Track quality 100.0 %
Test CRC D34373C2
Copy CRC D34373C2
Track not present in AccurateRip database
Copy OK
Track 8
Filename C:\EAC rips\08 - Bounding.wav
Pre-gap length 0:00:04.20
Peak level 97.5 %
Extraction speed 1.4 X
Track quality 99.9 %
Test CRC 75B131C6
Copy CRC 75B131C6
Track not present in AccurateRip database
Copy OK
Track 9
Filename C:\EAC rips\09 - Desinterresse en Deviatie, opnieuw en opnieuw.wav
Pre-gap length 0:00:02.13
Peak level 76.5 %
Extraction speed 1.9 X
Track quality 100.0 %
Test CRC 04055342
Copy CRC 04055342
Track not present in AccurateRip database
Copy OK
Track 10
Filename C:\EAC rips\10 - Monitor.wav
Pre-gap length 0:00:04.09
Peak level 97.9 %
Extraction speed 2.2 X
Track quality 100.0 %
Test CRC 172EB1B7
Copy CRC 172EB1B7
Track not present in AccurateRip database
Copy OK
Track 11
Filename C:\EAC rips\11 - Barium.wav
Pre-gap length 0:00:02.16
Peak level 84.9 %
Extraction speed 1.5 X
Track quality 99.9 %
Test CRC 14385E21
Copy CRC 14385E21
Track not present in AccurateRip database
Copy OK
None of the tracks are present in the AccurateRip database
No errors occurred
End of status report
---- CUETools DB Plugin V2.1.4
[CTDB TOCID: FSK9zIeFiR76llUgNhFmMwKWaVc-] found
Submit result: FSK9zIeFiR76llUgNhFmMwKWaVc- has been confirmed
Track | CTDB Status
1 | (1/1) Accurately ripped
2 | (1/1) Accurately ripped
3 | (1/1) Accurately ripped
4 | (1/1) Accurately ripped
5 | (1/1) Accurately ripped
6 | (1/1) Accurately ripped
7 | (1/1) Accurately ripped
8 | (1/1) Accurately ripped
9 | (1/1) Accurately ripped
10 | (1/1) Accurately ripped
11 | (1/1) Accurately ripped
==== Log checksum 1AF1AF8F05D4E2840E258B49B393726B4FEC69FF9795688381CA37FFA616FB5C ====
 
Содержание индексной карты (.CUE)
REM GENRE Jazz
REM DATE 1999
REM DISCID 960DC50B
REM COMMENT "ExactAudioCopy v1.0b3"
PERFORMER "Michael Moore with Tristan Honsinger and Cor Fuhler"
TITLE "Monitor"
FILE "01 - Riddled.wav" WAVE
TRACK 01 AUDIO
TITLE "Riddled"
PERFORMER "Michael Moore with Tristan Honsinger and Cor Fuhler"
ISRC DEM849900021
INDEX 01 00:00:00
TRACK 02 AUDIO
TITLE "Budnike"
PERFORMER "Michael Moore with Tristan Honsinger and Cor Fuhler"
ISRC DEM849900022
INDEX 00 05:17:40
FILE "02 - Budnike.wav" WAVE
INDEX 01 00:00:00
TRACK 03 AUDIO
TITLE "Five Bits"
PERFORMER "Michael Moore with Tristan Honsinger and Cor Fuhler"
ISRC DEM849900023
INDEX 00 03:33:10
FILE "03 - Five Bits.wav" WAVE
INDEX 01 00:00:00
TRACK 04 AUDIO
TITLE "Misericordia"
PERFORMER "Michael Moore with Tristan Honsinger and Cor Fuhler"
ISRC DEM849900024
INDEX 00 06:30:45
FILE "04 - Misericordia.wav" WAVE
INDEX 01 00:00:00
TRACK 05 AUDIO
TITLE "Gulls"
PERFORMER "Michael Moore with Tristan Honsinger and Cor Fuhler"
ISRC DEM849900025
INDEX 00 02:31:20
FILE "05 - Gulls.wav" WAVE
INDEX 01 00:00:00
TRACK 06 AUDIO
TITLE "Race in Space for Face"
PERFORMER "Michael Moore with Tristan Honsinger and Cor Fuhler"
ISRC DEM849900026
INDEX 00 04:03:67
FILE "06 - Race in Space for Face.wav" WAVE
INDEX 01 00:00:00
TRACK 07 AUDIO
TITLE "Focus"
PERFORMER "Michael Moore with Tristan Honsinger and Cor Fuhler"
ISRC DEM849900027
INDEX 00 04:03:50
FILE "07 - Focus.wav" WAVE
INDEX 01 00:00:00
TRACK 08 AUDIO
TITLE "Bounding"
PERFORMER "Michael Moore with Tristan Honsinger and Cor Fuhler"
ISRC DEM849900028
INDEX 00 05:42:55
FILE "08 - Bounding.wav" WAVE
INDEX 01 00:00:00
TRACK 09 AUDIO
TITLE "Desinterresse en Deviatie, opnieuw en opnieuw"
PERFORMER "Michael Moore with Tristan Honsinger and Cor Fuhler"
ISRC DEM849900029
INDEX 00 04:11:22
FILE "09 - Desinterresse en Deviatie, opnieuw en opnieuw.wav" WAVE
INDEX 01 00:00:00
TRACK 10 AUDIO
TITLE "Monitor"
PERFORMER "Michael Moore with Tristan Honsinger and Cor Fuhler"
ISRC DEM849900030
INDEX 00 05:01:35
FILE "10 - Monitor.wav" WAVE
INDEX 01 00:00:00
TRACK 11 AUDIO
TITLE "Barium"
PERFORMER "Michael Moore with Tristan Honsinger and Cor Fuhler"
ISRC DEM849900031
INDEX 00 14:54:00
FILE "11 - Barium.wav" WAVE
INDEX 01 00:00:00
Доп. информация: Recorded at The Loft, Köln, Germany, February 22nd & 23d, 1999.
 
Состав
Michael Moore – Clarinet, Bass Clarinet & Alto Saxophone
Cor Fuhler – Piano, Keyolin & Hammond Organ
Tristan Honsinger – Cello
Any questions -> support@pro-jazz.com. По всем вопросам пишите -> support@pro-jazz.com
12:53
139
Нет комментариев. Ваш будет первым!