Вы используете незарегистрированную версию компонента "Вкладки"!

Поиск

(Free Improvisation, Unit Records) Bertrand Blessing & Pitched Battle - Geneve - 2009, FLAC (tracks+.cue), lossless

(Free Improvisation, Unit Records) Bertrand Blessing & Pitched Battle - Geneve - 2009, FLAC (tracks+.cue), lossless
Треклист:
Bertrand Blessing & Pitched Battle / Genève
Жанр: Free Improvisation, Unit Records
Страна-производитель диска: Switzerland
Год издания: 2009
Издатель (лейбл): Unit Records
Номер по каталогу: UTR 4232
Аудиокодек: FLAC (*.flac)
Тип рипа: tracks+.cue
Битрейт аудио: lossless
Продолжительность: 49:07
Источник (релизер): Max Monteiro
Наличие сканов в содержимом раздачи: нет
Треклист:
1. Carouge 5:25
2. Meyrin 8:35
3. Les Eaux-Vives 2:56
4. Cologny 7:30
5. Petit-Lancy 4:03
6. Veyrier 3:33
7. Les Pâquis 2:03
8. Le Lignon 9:22
9. Onex 5:41
Composed by Bertrand Blessing.
 
Лог создания рипа
Exact Audio Copy V1.0 beta 3 from 29. August 2011
EAC extraction logfile from 7. May 2013, 13:35
Bertrand Blessing & Pitched Battle / Genève
Used drive : SlimtypeeNAU508 5 Adapter: 1 ID: 0
Read mode : Secure
Utilize accurate stream : Yes
Defeat audio cache : Yes
Make use of C2 pointers : No
Read offset correction : 6
Overread into Lead-In and Lead-Out : No
Fill up missing offset samples with silence : Yes
Delete leading and trailing silent blocks : No
Null samples used in CRC calculations : Yes
Used interface : Native Win32 interface for Win NT & 2000
Gap handling : Appended to previous track
Used output format : User Defined Encoder
Selected bitrate : 768 kBit/s
Quality : High
Add ID3 tag : No
Command line compressor : C:\Program Files (x86)\Exact Audio Copy\Flac\flac.exe
Additional command line options : -8 -V -T "ARTIST=%artist%" -T "TITLE=%title%" -T "ALBUM=%albumtitle%" -T "DATE=%year%" -T "TRACKNUMBER=%tracknr%" -T "GENRE=%genre%" -T "PERFORMER=%albuminterpret%" -T "COMPOSER=%composer%" %haslyrics%--tag-from-file=LYRICS="%lyricsfile%"%haslyrics% -T "ALBUMARTIST=%albumartist%" -T "DISCNUMBER=%cdnumber%" -T "TOTALDISCS=%totalcds%" -T "TOTALTRACKS=%numtracks%" -T "COMMENT=%comment%" %source% -o %dest%
TOC of the extracted CD
Track | Start | Length | Start sector | End sector
---------------------------------------------------------
1 | 0:00.00 | 5:24.50 | 0 | 24349
2 | 5:24.50 | 8:34.38 | 24350 | 62937
3 | 13:59.13 | 2:55.63 | 62938 | 76125
4 | 16:55.01 | 7:29.50 | 76126 | 109850
5 | 24:24.51 | 4:02.73 | 109851 | 128073
6 | 28:27.49 | 3:33.25 | 128074 | 144073
7 | 32:00.74 | 2:02.46 | 144074 | 153269
8 | 34:03.45 | 9:21.48 | 153270 | 195392
9 | 43:25.18 | 5:41.34 | 195393 | 221001
Track 1
Filename C:\EAC rips\01 - Carouge.wav
Pre-gap length 0:00:02.00
Peak level 100.0 %
Extraction speed 1.9 X
Track quality 99.9 %
Test CRC 40AFB485
Copy CRC 40AFB485
Accurately ripped (confidence 1) [4411F214] (AR v2)
Copy OK
Track 2
Filename C:\EAC rips\02 - Meyrin.wav
Peak level 100.0 %
Extraction speed 2.7 X
Track quality 100.0 %
Test CRC 09C65777
Copy CRC 09C65777
Accurately ripped (confidence 1) [02DF61D3] (AR v2)
Copy OK
Track 3
Filename C:\EAC rips\03 - Les Eaux-Vives.wav
Peak level 100.0 %
Extraction speed 2.6 X
Track quality 100.0 %
Test CRC B7B9A785
Copy CRC B7B9A785
Accurately ripped (confidence 1) [77B1A066] (AR v2)
Copy OK
Track 4
Filename C:\EAC rips\04 - Cologny.wav
Peak level 100.0 %
Extraction speed 3.2 X
Track quality 100.0 %
Test CRC 34E35584
Copy CRC 34E35584
Accurately ripped (confidence 1) [13AF923F] (AR v2)
Copy OK
Track 5
Filename C:\EAC rips\05 - Petit-Lancy.wav
Peak level 100.0 %
Extraction speed 3.2 X
Track quality 100.0 %
Test CRC 95DFB586
Copy CRC 95DFB586
Accurately ripped (confidence 1) [10A5DC87] (AR v2)
Copy OK
Track 6
Filename C:\EAC rips\06 - Veyrier.wav
Pre-gap length 0:00:00.71
Peak level 100.0 %
Extraction speed 3.3 X
Track quality 100.0 %
Test CRC E732684A
Copy CRC E732684A
Accurately ripped (confidence 1) [0CA32A89] (AR v2)
Copy OK
Track 7
Filename C:\EAC rips\07 - Les Pâquis.wav
Pre-gap length 0:00:00.65
Peak level 100.0 %
Extraction speed 3.0 X
Track quality 100.0 %
Test CRC 9180D452
Copy CRC 9180D452
Accurately ripped (confidence 1) [F1D3511E] (AR v2)
Copy OK
Track 8
Filename C:\EAC rips\08 - Le Lignon.wav
Pre-gap length 0:00:02.20
Peak level 100.0 %
Extraction speed 4.0 X
Track quality 100.0 %
Test CRC 078B436D
Copy CRC 078B436D
Accurately ripped (confidence 1) [8FBAABC2] (AR v2)
Copy OK
Track 9
Filename C:\EAC rips\09 - Onex.wav
Peak level 100.0 %
Extraction speed 4.0 X
Track quality 100.0 %
Test CRC ECC92B1B
Copy CRC ECC92B1B
Accurately ripped (confidence 1) [0F90E519] (AR v2)
Copy OK
All tracks accurately ripped
No errors occurred
End of status report
---- CUETools DB Plugin V2.1.4
[CTDB TOCID: 1SjkeJG5qHC3TmDvtJAW6yAa51w-] disk not present in database
Submit result: 1SjkeJG5qHC3TmDvtJAW6yAa51w- has been uploaded
==== Log checksum CF6FC46A0C4FB5C452AD49D029CF3FC3958EBD68A38C01F518B82A05D83A648A ====
 
Содержание индексной карты (.CUE)
REM GENRE Jazz
REM DATE 2009
REM DISCID 6D0B8209
REM COMMENT "ExactAudioCopy v1.0b3"
PERFORMER "Bertrand Blessing & Pitched Battle"
TITLE "Genève"
FILE "01 - Carouge.wav" WAVE
TRACK 01 AUDIO
TITLE "Carouge"
PERFORMER " "
ISRC CH5990700010
INDEX 01 00:00:00
FILE "02 - Meyrin.wav" WAVE
TRACK 02 AUDIO
TITLE "Meyrin"
PERFORMER " "
ISRC CH5990700020
INDEX 01 00:00:00
FILE "03 - Les Eaux-Vives.wav" WAVE
TRACK 03 AUDIO
TITLE "Les Eaux-Vives"
PERFORMER " "
ISRC CH5990700030
INDEX 01 00:00:00
FILE "04 - Cologny.wav" WAVE
TRACK 04 AUDIO
TITLE "Cologny"
PERFORMER " "
ISRC CH5990700040
INDEX 01 00:00:00
FILE "05 - Petit-Lancy.wav" WAVE
TRACK 05 AUDIO
TITLE "Petit-Lancy"
PERFORMER " "
ISRC CH5990700050
INDEX 01 00:00:00
TRACK 06 AUDIO
TITLE "Veyrier"
PERFORMER " "
ISRC CH5990700060
INDEX 00 04:02:02
FILE "06 - Veyrier.wav" WAVE
INDEX 01 00:00:00
TRACK 07 AUDIO
TITLE "Les Pâquis"
PERFORMER " "
ISRC CH5990700070
INDEX 00 03:32:35
FILE "07 - Les Pâquis.wav" WAVE
INDEX 01 00:00:00
TRACK 08 AUDIO
TITLE "Le Lignon"
PERFORMER " "
ISRC CH5990700080
INDEX 00 02:00:26
FILE "08 - Le Lignon.wav" WAVE
INDEX 01 00:00:00
FILE "09 - Onex.wav" WAVE
TRACK 09 AUDIO
TITLE "Onex"
PERFORMER " "
ISRC CH5990700090
INDEX 01 00:00:00
Доп. информация: Recorded and mixed at Studio du Flon, Lausanne, Switzerland.
 
Состав
Martin Wisard – Alto & Flute
Nicolas Masson – Tenor & Clarinet
Christian Graf – Guitar
Ian Gordon-Lennox – Tuba
Bertrand Blessing – Drums
По всем вопросам пишите личное сообщение пользователю M0p94ok.
12:54
152
Нет комментариев. Ваш будет первым!